  0
SECTION
  2
HEADER
  9
$ACADVER
  1
AC1015
  9
$ACADMAINTVER
 70
    20
  9
$DWGCODEPAGE
  3
ANSI_1252
  9
$INSBASE
 10
0.0
 20
0.0
 30
0.0
  9
$EXTMIN
 10
-126.5008576691758
 20
-30.39426378024522
 30
-0.00000001
  9
$EXTMAX
 10
342.4546681664578
 20
194.3987518606429
 30
0.00000001
  9
$LIMMIN
 10
0.0
 20
0.0
  9
$LIMMAX
 10
420.0
 20
297.0
  9
$ORTHOMODE
 70
     1
  9
$REGENMODE
 70
     1
  9
$FILLMODE
 70
     1
  9
$QTEXTMODE
 70
     0
  9
$MIRRTEXT
 70
     1
  9
$LTSCALE
 40
1.0
  9
$ATTMODE
 70
     1
  9
$TEXTSIZE
 40
3.5
  9
$TRACEWID
 40
1.0
  9
$TEXTSTYLE
  7
STANDARD
  9
$CLAYER
  8
0
  9
$CELTYPE
  6
BYLAYER
  9
$CECOLOR
 62
   256
  9
$CELTSCALE
 40
1.0
  9
$DISPSILH
 70
     0
  9
$DIMSCALE
 40
1.0
  9
$DIMASZ
 40
2.5
  9
$DIMEXO
 40
1.0
  9
$DIMDLI
 40
10.0
  9
$DIMRND
 40
0.0
  9
$DIMDLE
 40
0.0
  9
$DIMEXE
 40
2.0
  9
$DIMTP
 40
0.1
  9
$DIMTM
 40
0.1
  9
$DIMTXT
 40
3.5
  9
$DIMCEN
 40
-2.0
  9
$DIMTSZ
 40
0.0
  9
$DIMTOL
 70
     0
  9
$DIMLIM
 70
     0
  9
$DIMTIH
 70
     0
  9
$DIMTOH
 70
     0
  9
$DIMSE1
 70
     0
  9
$DIMSE2
 70
     0
  9
$DIMTAD
 70
     1
  9
$DIMZIN
 70
     8
  9
$DIMBLK
  1

  9
$DIMASO
 70
     1
  9
$DIMSHO
 70
     1
  9
$DIMPOST
  1

  9
$DIMAPOST
  1

  9
$DIMALT
 70
     0
  9
$DIMALTD
 70
     2
  9
$DIMALTF
 40
25.4
  9
$DIMLFAC
 40
1.0
  9
$DIMTOFL
 70
     1
  9
$DIMTVP
 40
0.0
  9
$DIMTIX
 70
     0
  9
$DIMSOXD
 70
     0
  9
$DIMSAH
 70
     0
  9
$DIMBLK1
  1

  9
$DIMBLK2
  1

  9
$DIMSTYLE
  2
GEN-ISO
  9
$DIMCLRD
 70
     0
  9
$DIMCLRE
 70
     0
  9
$DIMCLRT
 70
     2
  9
$DIMTFAC
 40
1.0
  9
$DIMGAP
 40
1.5
  9
$DIMJUST
 70
     0
  9
$DIMSD1
 70
     0
  9
$DIMSD2
 70
     0
  9
$DIMTOLJ
 70
     0
  9
$DIMTZIN
 70
     8
  9
$DIMALTZ
 70
     8
  9
$DIMALTTZ
 70
     8
  9
$DIMUPT
 70
     0
  9
$DIMDEC
 70
     2
  9
$DIMTDEC
 70
     5
  9
$DIMALTU
 70
     2
  9
$DIMALTTD
 70
     2
  9
$DIMTXSTY
  7
STANDARD
  9
$DIMAUNIT
 70
     0
  9
$DIMADEC
 70
     0
  9
$DIMALTRND
 40
0.0
  9
$DIMAZIN
 70
     0
  9
$DIMDSEP
 70
    46
  9
$DIMATFIT
 70
     3
  9
$DIMFRAC
 70
     0
  9
$DIMLDRBLK
  1

  9
$DIMLUNIT
 70
     2
  9
$DIMLWD
 70
    -2
  9
$DIMLWE
 70
    -2
  9
$DIMTMOVE
 70
     0
  9
$LUNITS
 70
     2
  9
$LUPREC
 70
     4
  9
$SKETCHINC
 40
1.0
  9
$FILLETRAD
 40
0.0
  9
$AUNITS
 70
     0
  9
$AUPREC
 70
     0
  9
$MENU
  1
acad
  9
$ELEVATION
 40
0.0
  9
$PELEVATION
 40
0.0
  9
$THICKNESS
 40
0.0
  9
$LIMCHECK
 70
     0
  9
$CHAMFERA
 40
10.0
  9
$CHAMFERB
 40
10.0
  9
$CHAMFERC
 40
0.0
  9
$CHAMFERD
 40
0.0
  9
$SKPOLY
 70
     0
  9
$TDCREATE
 40
2452399.741836805
  9
$TDUCREATE
 40
2452399.658503472
  9
$TDUPDATE
 40
2456219.398323518
  9
$TDUUPDATE
 40
2456219.314990185
  9
$TDINDWG
 40
0.0539230556
  9
$TDUSRTIMER
 40
0.0539230556
  9
$USRTIMER
 70
     1
  9
$ANGBASE
 50
0.0
  9
$ANGDIR
 70
     0
  9
$PDMODE
 70
     0
  9
$PDSIZE
 40
0.0
  9
$PLINEWID
 40
0.0
  9
$SPLFRAME
 70
     0
  9
$SPLINETYPE
 70
     6
  9
$SPLINESEGS
 70
     8
  9
$HANDSEED
  5
1D5A
  9
$SURFTAB1
 70
     6
  9
$SURFTAB2
 70
     6
  9
$SURFTYPE
 70
     6
  9
$SURFU
 70
     6
  9
$SURFV
 70
     6
  9
$UCSBASE
  2

  9
$UCSNAME
  2

  9
$UCSORG
 10
0.0
 20
0.0
 30
0.0
  9
$UCSXDIR
 10
1.0
 20
0.0
 30
0.0
  9
$UCSYDIR
 10
0.0
 20
1.0
 30
0.0
  9
$UCSORTHOREF
  2

  9
$UCSORTHOVIEW
 70
     0
  9
$UCSORGTOP
 10
0.0
 20
0.0
 30
0.0
  9
$UCSORGBOTTOM
 10
0.0
 20
0.0
 30
0.0
  9
$UCSORGLEFT
 10
0.0
 20
0.0
 30
0.0
  9
$UCSORGRIGHT
 10
0.0
 20
0.0
 30
0.0
  9
$UCSORGFRONT
 10
0.0
 20
0.0
 30
0.0
  9
$UCSORGBACK
 10
0.0
 20
0.0
 30
0.0
  9
$PUCSBASE
  2

  9
$PUCSNAME
  2

  9
$PUCSORG
 10
0.0
 20
0.0
 30
0.0
  9
$PUCSXDIR
 10
1.0
 20
0.0
 30
0.0
  9
$PUCSYDIR
 10
0.0
 20
1.0
 30
0.0
  9
$PUCSORTHOREF
  2

  9
$PUCSORTHOVIEW
 70
     0
  9
$PUCSORGTOP
 10
0.0
 20
0.0
 30
0.0
  9
$PUCSORGBOTTOM
 10
0.0
 20
0.0
 30
0.0
  9
$PUCSORGLEFT
 10
0.0
 20
0.0
 30
0.0
  9
$PUCSORGRIGHT
 10
0.0
 20
0.0
 30
0.0
  9
$PUCSORGFRONT
 10
0.0
 20
0.0
 30
0.0
  9
$PUCSORGBACK
 10
0.0
 20
0.0
 30
0.0
  9
$USERI1
 70
     0
  9
$USERI2
 70
     0
  9
$USERI3
 70
     0
  9
$USERI4
 70
     0
  9
$USERI5
 70
     0
  9
$USERR1
 40
0.0
  9
$USERR2
 40
0.0
  9
$USERR3
 40
0.0
  9
$USERR4
 40
0.0
  9
$USERR5
 40
0.0
  9
$WORLDVIEW
 70
     1
  9
$SHADEDGE
 70
     3
  9
$SHADEDIF
 70
    70
  9
$TILEMODE
 70
     1
  9
$MAXACTVP
 70
    16
  9
$PINSBASE
 10
0.0
 20
0.0
 30
0.0
  9
$PLIMCHECK
 70
     0
  9
$PEXTMIN
 10
1.000000000000000E+20
 20
1.000000000000000E+20
 30
1.000000000000000E+20
  9
$PEXTMAX
 10
-1.000000000000000E+20
 20
-1.000000000000000E+20
 30
-1.000000000000000E+20
  9
$PLIMMIN
 10
0.0
 20
0.0
  9
$PLIMMAX
 10
420.0
 20
297.0
  9
$UNITMODE
 70
     0
  9
$VISRETAIN
 70
     0
  9
$PLINEGEN
 70
     0
  9
$PSLTSCALE
 70
     1
  9
$TREEDEPTH
 70
  3020
  9
$CMLSTYLE
  2
STANDARD
  9
$CMLJUST
 70
     0
  9
$CMLSCALE
 40
1.0
  9
$PROXYGRAPHICS
 70
     1
  9
$MEASUREMENT
 70
     1
  9
$CELWEIGHT
370
    -1
  9
$ENDCAPS
280
     0
  9
$JOINSTYLE
280
     0
  9
$LWDISPLAY
290
     0
  9
$INSUNITS
 70
     0
  9
$HYPERLINKBASE
  1

  9
$STYLESHEET
  1

  9
$XEDIT
290
     1
  9
$CEPSNTYPE
380
     0
  9
$PSTYLEMODE
290
     1
  9
$FINGERPRINTGUID
  2
{F75D87DE-0F3D-42C5-A1A6-A1D8CC7BDFA9}
  9
$VERSIONGUID
  2
{4940C1C4-DDCD-437A-B8F2-AEF452C20F72}
  9
$EXTNAMES
290
     1
  9
$PSVPSCALE
 40
0.0
  9
$OLESTARTUP
290
     0
  0
ENDSEC
  0
SECTION
  2
CLASSES
  0
CLASS
  1
ACDBDICTIONARYWDFLT
  2
AcDbDictionaryWithDefault
  3
ObjectDBX Classes
 90
        0
280
     0
281
     0
  0
CLASS
  1
MATERIAL
  2
AcDbMaterial
  3
ObjectDBX Classes
 90
     1153
280
     0
281
     0
  0
CLASS
  1
VISUALSTYLE
  2
AcDbVisualStyle
  3
ObjectDBX Classes
 90
     4095
280
     0
281
     0
  0
CLASS
  1
TABLESTYLE
  2
AcDbTableStyle
  3
ObjectDBX Classes
 90
     4095
280
     0
281
     0
  0
CLASS
  1
SCALE
  2
AcDbScale
  3
ObjectDBX Classes
 90
     1153
280
     0
281
     0
  0
CLASS
  1
MLEADERSTYLE
  2
AcDbMLeaderStyle
  3
ACDB_MLEADERSTYLE_CLASS
 90
     4095
280
     0
281
     0
  0
CLASS
  1
ACME_DOCUMENT
  2
AcMeDbDoc
  3
AcMeServices
 90
     1024
280
     0
281
     0
  0
CLASS
  1
AMGSETTINGSOBJ
  2
AmgSettingsObj
  3
"AcadM|Product Description: AutoCAD Mechanical|Company: Autodesk, Inc."
 90
     1024
280
     0
281
     0
  0
CLASS
  1
ACMESCOPE
  2
AcMeScope
  3
AcMeServices
 90
     1024
280
     0
281
     0
  0
CLASS
  1
ACMECOMMANDHISTORY
  2
AcMeCommandHistory
  3
AcMeServices
 90
     1024
280
     0
281
     0
  0
CLASS
  1
ACIMSYSVARMAN
  2
AcImSysVarManager
  3
AcMeServices
 90
     1024
280
     0
281
     0
  0
CLASS
  1
ACIMINTSYSVAR
  2
AcImIntSysVar
  3
AcMeServices
 90
     1024
280
     0
281
     0
  0
CLASS
  1
ACMEDRAWINGMAN
  2
AcMeDrawingMan
  3
AcMeServices
 90
     1024
280
     0
281
     0
  0
CLASS
  1
ACMEVIEW
  2
AcMeView
  3
AcMeServices
 90
     1024
280
     0
281
     0
  0
CLASS
  1
ACDBENTITYCACHE
  2
AcMeEntityCache
  3
AcMeServices
 90
     1024
280
     0
281
     0
  0
CLASS
  1
GSMANAGER
  2
AcMeGSManager
  3
AcMeServices
 90
     1024
280
     0
281
     0
  0
CLASS
  1
AMDTINTERNALREACTOR
  2
AmdtInternalReactor
  3
AcMeServices
 90
     1024
280
     0
281
     0
  0
CLASS
  1
ACMESTATEMGR
  2
AcMeStateMgr
  3
AcMeServices
 90
     1024
280
     0
281
     0
  0
CLASS
  1
ACGREFMASTER
  2
AcGrefMaster
  3
AcAttribServices
 90
     1024
280
     0
281
     0
  0
CLASS
  1
AM_DRAWING_MGR
  2
AcDmDwgMgr
  3
AcMechDwgViewMgmt
 90
     1024
280
     0
281
     0
  0
CLASS
  1
AM_DWG_DOCUMENT
  2
AcDmDwgDocument
  3
AcMechDwgViewMgmt
 90
     1024
280
     0
281
     0
  0
CLASS
  1
AM_DWG_SHEET
  2
AcDmSheet
  3
AcMechDwgViewMgmt
 90
     1024
280
     0
281
     0
  0
CLASS
  1
AM_VIEWDIMPARMAP
  2
AcDmViewDimParMap
  3
AcMechDwgViewMgmt
 90
     1024
280
     0
281
     0
  0
CLASS
  1
ACIMREALSYSVAR
  2
AcImRealSysVar
  3
AcMeServices
 90
     1024
280
     0
281
     0
  0
CLASS
  1
AM_DWGMGR_NAME
  2
AcDmDwgMgrName
  3
AcMechDwgViewMgmt
 90
     1024
280
     0
281
     0
  0
CLASS
  1
ACME_DATABASE
  2
AcMeDbDatabase
  3
AcMeServices
 90
     1024
280
     0
281
     0
  0
CLASS
  1
ACRFINSADJUSTERMGR
  2
AcRfInsAdjusterMgr
  3
AcMeServices
 90
     1024
280
     0
281
     0
  0
CLASS
  1
ACGREFACADMASTER
  2
AcGrefacadMaster
  3
AcGrefServices
 90
     1024
280
     0
281
     0
  0
CLASS
  1
AMDTMENUSTATEMGR
  2
AmdtMenuStateMgr
  3
McadcomServices
 90
     1024
280
     0
281
     0
  0
CLASS
  1
AMDTMCOMMENUSTATE
  2
AmdtMcomMenuState
  3
McadcomServices
 90
     1024
280
     0
281
     0
  0
CLASS
  1
AMIMASTER
  2
AmiMaster
  3
AmiServices
 90
     1024
280
     0
281
     0
  0
CLASS
  1
MAPIAMMOUDLE
  2
MApiAmModule
  3
MApiAmServices
 90
     1024
280
     0
281
     0
  0
CLASS
  1
ACIMSTRSYSVAR
  2
AcImStrSysVar
  3
AcMeServices
 90
     1024
280
     0
281
     0
  0
CLASS
  1
AMDTADMENUSTATE
  2
AmdtAdMenuState
  3
DesignerServices
 90
     1024
280
     0
281
     0
  0
CLASS
  1
ADAPPL
  2
AcAdAppl
  3
DesignerServices
 90
     1024
280
     0
281
     0
  0
CLASS
  1
DEPMGR
  2
AcAdDepMgr
  3
DesignerServices
 90
     1024
280
     0
281
     0
  0
CLASS
  1
PARAMMGR
  2
AcAdParamMgr
  3
DesignerServices
 90
     1024
280
     0
281
     0
  0
CLASS
  1
PARAMSCOPE
  2
AcAdParamScope
  3
DesignerServices
 90
     1024
280
     0
281
     0
  0
CLASS
  1
NAMEDAPPL
  2
AcAdNamedAppl
  3
DesignerServices
 90
     1024
280
     0
281
     0
  0
CLASS
  1
AMDTDMMENUSTATE
  2
AmdtDmMenuState
  3
AcMechDwgViewMgmt
 90
     1024
280
     0
281
     0
  0
CLASS
  1
AMDTAMMENUSTATE
  2
AmdtAmMenuState
  3
DesignerAssemblies
 90
     1024
280
     0
281
     0
  0
CLASS
  1
ACAMPROJECT
  2
AcAmProject
  3
DesignerAssemblies
 90
     1024
280
     0
281
     0
  0
CLASS
  1
ACAMGRCOMPDEF
  2
AcAmGrCompDef
  3
DesignerAssemblies
 90
     1024
280
     0
281
     0
  0
CLASS
  1
ACCMCONTEXT
  2
AcCmContext
  3
DesignerAssemblies
 90
     1024
280
     0
281
     0
  0
CLASS
  1
ACAMCOMPDEF
  2
AcAmCompDef
  3
DesignerAssemblies
 90
     1024
280
     0
281
     0
  0
CLASS
  1
ACAMCOMPDEFMGR
  2
AcAmCompDefMgr
  3
DesignerAssemblies
 90
     1024
280
     0
281
     0
  0
CLASS
  1
AMCONTEXTMGR
  2
AcAmContextMgr
  3
DesignerAssemblies
 90
     1024
280
     0
281
     0
  0
CLASS
  1
ACAMCONTEXTMODELER
  2
AcAmContextModeler
  3
DesignerAssemblies
 90
     1024
280
     0
281
     0
  0
CLASS
  1
ACMDATADICTIONARY
  2
AcmDataDictionary
  3
"AcmSymBB|Product Description: AutoCAD Mechanical|Company: Autodesk, Inc."
 90
     1024
280
     0
281
     0
  0
CLASS
  1
CATALOGSTATE
  2
AcAmCatalogState
  3
DesignerAssemblies
 90
     1024
280
     0
281
     0
  0
CLASS
  1
ACAMGRCOMPDEFSET
  2
AcAmGrCompDefSet
  3
DesignerAssemblies
 90
     1024
280
     0
281
     0
  0
CLASS
  1
AMDTBROWSERDBTAB
  2
AmdtBrowserDbTab
  3
McadcomServices
 90
     1024
280
     0
281
     0
  0
CLASS
  1
CBROWSERAPPOBJECT
  2
CBrowserAppObject
  3
McadcomServices
 90
     1024
280
     0
281
     0
  0
CLASS
  1
DM_PLACEHOLDER
  2
AcDmSelsetPlaceholder
  3
AcMechDwgViewMgmt
 90
     1024
280
     0
281
     0
  0
CLASS
  1
ACMSTANDARDDIN
  2
AcmStandardDIN
  3
"Amdt_StdImp|Product Description: AutoCAD Mechanical|Company: Autodesk, Inc."
 90
     1024
280
     0
281
     0
  0
CLASS
  1
AMDTEDGESTANDARDDIN13715
  2
AmdtEdgeStdDIN13715
  3
"Amdt_StdImp|Product Description: AutoCAD Mechanical|Company: Autodesk, Inc."
 90
     1024
280
     0
281
     0
  0
CLASS
  1
ACMSURFSTANDARDDIN2002
  2
AcmSurfTextStdDIN2002
  3
"Amdt_StdImp|Product Description: AutoCAD Mechanical|Company: Autodesk, Inc."
 90
     1024
280
     0
281
     0
  0
CLASS
  1
ACMFCFSTANDARDDIN
  2
AcmFCFStdDIN
  3
"Amdt_StdImp|Product Description: AutoCAD Mechanical|Company: Autodesk, Inc."
 90
     1024
280
     0
281
     0
  0
CLASS
  1
ACMWELDSTANDARDDIN
  2
AcmWeldingStdDIN
  3
"Amdt_StdImp|Product Description: AutoCAD Mechanical|Company: Autodesk, Inc."
 90
     1024
280
     0
281
     0
  0
CLASS
  1
ACMIDSTANDARDDIN
  2
AcmIdStdDIN
  3
"Amdt_StdImp|Product Description: AutoCAD Mechanical|Company: Autodesk, Inc."
 90
     1024
280
     0
281
     0
  0
CLASS
  1
ACMDATUMSTANDARDDIN
  2
AcmDatumStdDIN
  3
"Amdt_StdImp|Product Description: AutoCAD Mechanical|Company: Autodesk, Inc."
 90
     1024
280
     0
281
     0
  0
CLASS
  1
ACMBOMSTANDARDDIN
  2
AcmBOMStdDIN
  3
"Amdt_StdImp|Product Description: AutoCAD Mechanical|Company: Autodesk, Inc."
 90
     1024
280
     0
281
     0
  0
CLASS
  1
ACMDETAILSTANDARDDIN
  2
AmdtDetailSymStdDIN
  3
"Amdt_StdImp|Product Description: AutoCAD Mechanical|Company: Autodesk, Inc."
 90
     1024
280
     0
281
     0
  0
CLASS
  1
ACMSECTIONSTANDARDDIN
  2
AmdtSectionSymStdDIN
  3
"Amdt_StdImp|Product Description: AutoCAD Mechanical|Company: Autodesk, Inc."
 90
     1024
280
     0
281
     0
  0
CLASS
  1
ACMCENTERLINESTANDARDDIN
  2
AmdtCenterLineStdDIN
  3
"Amdt_StdImp|Product Description: AutoCAD Mechanical|Company: Autodesk, Inc."
 90
     1024
280
     0
281
     0
  0
CLASS
  1
ACMTHREADLINESTANDARDDIN
  2
AmdtThreadLineStdDIN
  3
"Amdt_StdImp|Product Description: AutoCAD Mechanical|Company: Autodesk, Inc."
 90
     1024
280
     0
281
     0
  0
CLASS
  1
ACMNOTESTANDARDDIN
  2
AmdtNoteStdDIN
  3
"Amdt_StdImp|Product Description: AutoCAD Mechanical|Company: Autodesk, Inc."
 90
     1024
280
     0
281
     0
  0
CLASS
  1
ACMTAPERSTANDARDDIN
  2
AcmTaperStdDIN
  3
"Amdt_StdImp|Product Description: AutoCAD Mechanical|Company: Autodesk, Inc."
 90
     1024
280
     0
281
     0
  0
CLASS
  1
ACMANOOTATIONVIEWSTANDARDDIN
  2
AmdtAnViewStdDIN
  3
"Amdt_StdImp|Product Description: AutoCAD Mechanical|Company: Autodesk, Inc."
 90
     1024
280
     0
281
     0
  0
CLASS
  1
ACAMGLAYSTD
  2
AcAmgLayStd
  3
"AmgLay|Product Description: AutoCAD Mechanical|Company: Autodesk, Inc."
 90
     1024
280
     0
281
     0
  0
CLASS
  1
ACAMGDIMSTD
  2
AcAmgDimStd
  3
"AmgDim|Product Description: AutoCAD Mechanical|Company: Autodesk, Inc."
 90
     1024
280
     0
281
     0
  0
CLASS
  1
AMGOBJPROPCFG
  2
AmgObjPropCfg
  3
"AmgLay|Product Description: AutoCAD Mechanical|Company: Autodesk, Inc."
 90
     1025
280
     0
281
     0
  0
CLASS
  1
ACAMGHOLECHARTSTDDIN
  2
AcAmgHoleChartStdDIN
  3
AmgDim|Product Description: AutoCAD Mechanical|Company: Autodesk, Inc.
 90
     1024
280
     0
281
     0
  0
CLASS
  1
ACAMGTITLESTD
  2
AcAmgTitleStd
  3
"AmgTitle|Product Description: AutoCAD Mechanical|Company: Autodesk, Inc."
 90
     4095
280
     0
281
     0
  0
CLASS
  1
AMDTNOTETEMPLATEDB
  2
AmdtNoteTemplateDB
  3
AcmSymBB|Product Description: AutoCAD Mechanical|Company: Autodesk, Inc.
 90
     1024
280
     0
281
     0
  0
CLASS
  1
ACAMGFILTERDAT
  2
AcAmgFilterDat
  3
"AcadM|Product Description: AutoCAD Mechanical|Company: Autodesk, Inc."
 90
     1024
280
     0
281
     0
  0
CLASS
  1
DICTIONARYVAR
  2
AcDbDictionaryVar
  3
ObjectDBX Classes
 90
        0
280
     0
281
     0
  0
CLASS
  1
CELLSTYLEMAP
  2
AcDbCellStyleMap
  3
ObjectDBX Classes
 90
     1152
280
     0
281
     0
  0
CLASS
  1
ACDBPLACEHOLDER
  2
AcDbPlaceHolder
  3
ObjectDBX Classes
 90
        0
280
     0
281
     0
  0
CLASS
  1
LAYOUT
  2
AcDbLayout
  3
ObjectDBX Classes
 90
        0
280
     0
281
     0
  0
ENDSEC
  0
SECTION
  2
TABLES
  0
TABLE
  2
VPORT
  5
8
330
0
100
AcDbSymbolTable
 70
     1
  0
VPORT
  5
1C42
330
8
100
AcDbSymbolTableRecord
100
AcDbViewportTableRecord
  2
*ACTIVE
 70
     0
 10
0.0
 20
0.0
 11
1.0
 21
1.0
 12
107.9753931518646
 22
96.9226420944051
 13
0.0
 23
0.0
 14
1.0
 24
1.0
 15
10.0
 25
10.0
 16
0.0
 26
0.0
 36
1.0
 17
0.0
 27
0.0
 37
0.0
 40
304.88290130012
 41
1.548186528497409
 42
50.0
 43
0.0
 44
0.0
 50
0.0
 51
0.0
 71
     0
 72
   100
 73
     1
 74
     0
 75
     0
 76
     0
 77
     0
 78
     0
281
     0
 65
     1
110
0.0
120
0.0
130
0.0
111
1.0
121
0.0
131
0.0
112
0.0
122
1.0
132
0.0
 79
     0
146
0.0
  0
ENDTAB
  0
TABLE
  2
LTYPE
  5
5
330
0
100
AcDbSymbolTable
 70
    21
  0
LTYPE
  5
12
330
5
100
AcDbSymbolTableRecord
100
AcDbLinetypeTableRecord
  2
BYBLOCK
 70
     0
  3

 72
    65
 73
     0
 40
0.0
  0
LTYPE
  5
13
330
5
100
AcDbSymbolTableRecord
100
AcDbLinetypeTableRecord
  2
BYLAYER
 70
     0
  3

 72
    65
 73
     0
 40
0.0
  0
LTYPE
  5
14
330
5
100
AcDbSymbolTableRecord
100
AcDbLinetypeTableRecord
  2
CONTINUOUS
 70
     0
  3
Solid line
 72
    65
 73
     0
 40
0.0
  0
LTYPE
  5
13A1
330
5
100
AcDbSymbolTableRecord
100
AcDbLinetypeTableRecord
  2
ACAD_ISO02W100
 70
     0
  3
ISO Strichlinie __ __ __ __ __ __ __ __ __ __ _
 72
    65
 73
     2
 40
15.0
 49
12.0
 74
     0
 49
-3.0
 74
     0
  0
LTYPE
  5
13A2
330
5
100
AcDbSymbolTableRecord
100
AcDbLinetypeTableRecord
  2
ACAD_ISO10W100
 70
     0
  3
ISO Strichpunktlinie __ . __ . __ . __ . __ . _
 72
    65
 73
     4
 40
18.5
 49
12.0
 74
     0
 49
-3.0
 74
     0
 49
0.5
 74
     0
 49
-3.0
 74
     0
  0
LTYPE
  5
1CC1
330
5
100
AcDbSymbolTableRecord
100
AcDbLinetypeTableRecord
  2
HIDDEN
 70
     0
  3
Verdeckt
 72
    65
 73
     2
 40
9.525
 49
6.349999999999999
 74
     0
 49
-3.174999999999999
 74
     0
  0
LTYPE
  5
1CC2
330
5
100
AcDbSymbolTableRecord
100
AcDbLinetypeTableRecord
  2
PHANTOM2
 70
     0
  3
Phantom (.5x) ___ _ _ ___ _ _ ___ _ _ ___ _ _
 72
    65
 73
     6
 40
31.75
 49
15.875
 74
     0
 49
-3.174999999999999
 74
     0
 49
3.174999999999999
 74
     0
 49
-3.174999999999999
 74
     0
 49
3.174999999999999
 74
     0
 49
-3.174999999999999
 74
     0
  0
LTYPE
  5
1CC3
330
5
100
AcDbSymbolTableRecord
100
AcDbLinetypeTableRecord
  2
CENTER
 70
     0
  3
Mitte ____ _ ____ _ ____ _ ____ _ ____ _ ____
 72
    65
 73
     4
 40
50.8
 49
31.75
 74
     0
 49
-6.349999999999999
 74
     0
 49
6.349999999999999
 74
     0
 49
-6.349999999999999
 74
     0
  0
LTYPE
  5
1D09
330
5
100
AcDbSymbolTableRecord
100
AcDbLinetypeTableRecord
  2
AM_ISO02W050
 70
     0
  3
__ __ __ __ __ __ __ __ __ __ __ __ __ __ __
 72
    65
 73
     2
 40
7.5
 49
6.0
 74
     0
 49
-1.5
 74
     0
  0
LTYPE
  5
1D0A
330
5
100
AcDbSymbolTableRecord
100
AcDbLinetypeTableRecord
  2
AM_ISO08W050
 70
     0
  3
____ . ____ . ____ . ____ . ____ . ____ . ____
 72
    65
 73
     4
 40
18.0
 49
12.0
 74
     0
 49
-1.5
 74
     0
 49
3.0
 74
     0
 49
-1.5
 74
     0
  0
LTYPE
  5
1D0B
330
5
100
AcDbSymbolTableRecord
100
AcDbLinetypeTableRecord
  2
AM_ISO09W050
 70
     0
  3
_____ . . _____ . . _____ . . ____ .. ____
 72
    65
 73
     6
 40
22.5
 49
12.0
 74
     0
 49
-1.5
 74
     0
 49
3.0
 74
     0
 49
-1.5
 74
     0
 49
3.0
 74
     0
 49
-1.5
 74
     0
  0
LTYPE
  5
1D0C
330
5
100
AcDbSymbolTableRecord
100
AcDbLinetypeTableRecord
  2
Amconstr
 70
     0
  3
_______________________
 72
    65
 73
     2
 40
9999.0
 49
9999.0
 74
     0
 49
0.0
 74
     0
  0
LTYPE
  5
1D0D
330
5
100
AcDbSymbolTableRecord
100
AcDbLinetypeTableRecord
  2
AM_ISO08W050x2
 70
     0
  3
__ . __ . __ . __ . __ . __
 72
    65
 73
     4
 40
9.0
 49
6.0
 74
     0
 49
-0.75
 74
     0
 49
1.5
 74
     0
 49
-0.75
 74
     0
  0
LTYPE
  5
1D0E
330
5
100
AcDbSymbolTableRecord
100
AcDbLinetypeTableRecord
  2
AM_ISO02W050x2
 70
     0
  3
 _ _ _ _ _ _ _ _ _ _ _ _
 72
    65
 73
     2
 40
3.75
 49
3.0
 74
     0
 49
-0.75
 74
     0
  0
LTYPE
  5
1D11
330
5
100
AcDbSymbolTableRecord
100
AcDbLinetypeTableRecord
  2
Amzigzag
 70
     0
  3
/\/-/\/-/\/-/\/-/\/-/\/
 72
    65
 73
     2
 40
11.0001
 49
0.0001
 74
     4
 75
   136
340
1D10
 46
0.04
 50
0.0
 44
0.0
 45
0.0
 49
-11.0
 74
     0
  0
LTYPE
  5
1D12
330
5
100
AcDbSymbolTableRecord
100
AcDbLinetypeTableRecord
  2
AM_DIN_F_W050
 70
     0
  3
__ __ __ __ __ __ __ __ __ __ __ __ __ __ __
 72
    65
 73
     2
 40
6.25
 49
4.75
 74
     0
 49
-1.5
 74
     0
  0
LTYPE
  5
1D13
330
5
100
AcDbSymbolTableRecord
100
AcDbLinetypeTableRecord
  2
AM_DIN_G_W050
 70
     0
  3
____ . ____ . ____ . ____ . ____ . ____ . ____
 72
    65
 73
     4
 40
13.75
 49
9.75
 74
     0
 49
-1.5
 74
     0
 49
1.0
 74
     0
 49
-1.5
 74
     0
  0
LTYPE
  5
1D14
330
5
100
AcDbSymbolTableRecord
100
AcDbLinetypeTableRecord
  2
AM_DIN_K_W050
 70
     0
  3
_____ . . _____ . . _____ . . ____ .. ____
 72
    65
 73
     6
 40
16.25
 49
9.75
 74
     0
 49
-1.5
 74
     0
 49
1.0
 74
     0
 49
-1.5
 74
     0
 49
1.0
 74
     0
 49
-1.5
 74
     0
  0
LTYPE
  5
1D15
330
5
100
AcDbSymbolTableRecord
100
AcDbLinetypeTableRecord
  2
AM_DIN_G_W050x2
 70
     0
  3
__ . __ . __ . __ . __ . __
 72
    65
 73
     4
 40
6.875
 49
4.75
 74
     0
 49
-0.875
 74
     0
 49
0.375
 74
     0
 49
-0.875
 74
     0
  0
LTYPE
  5
1D16
330
5
100
AcDbSymbolTableRecord
100
AcDbLinetypeTableRecord
  2
AM_DIN_F_W050x2
 70
     0
  3
 _ _ _ _ _ _ _ _ _ _ _ _
 72
    65
 73
     2
 40
3.125
 49
2.25
 74
     0
 49
-0.875
 74
     0
  0
LTYPE
  5
1D25
330
5
100
AcDbSymbolTableRecord
100
AcDbLinetypeTableRecord
  2
ACDINWELD
 70
     0
  3
_ _ _ _ _
 72
    65
 73
     2
 40
2.0
 49
2.0
 74
     0
 49
-1.0
 74
     0
  0
LTYPE
  5
1D26
330
5
100
AcDbSymbolTableRecord
100
AcDbLinetypeTableRecord
  2
ACDINTGB
 70
     0
  3
__ . . __ . .
 72
    65
 73
     6
 40
9.0
 49
4.0
 74
     0
 49
-1.0
 74
     0
 49
1.0
 74
     0
 49
-1.0
 74
     0
 49
1.0
 74
     0
 49
-1.0
 74
     0
  0
LTYPE
  5
1D27
330
5
100
AcDbSymbolTableRecord
100
AcDbLinetypeTableRecord
  2
ACDINTGL
 70
     0
  3
_ _ _ _ _
 72
    65
 73
     2
 40
3.0
 49
2.0
 74
     0
 49
-1.0
 74
     0
  0
ENDTAB
  0
TABLE
  2
LAYER
  5
2
330
0
100
AcDbSymbolTable
 70
     7
  0
LAYER
  5
F
102
{ACAD_XDICTIONARY
360
1D2E
102
}
330
2
100
AcDbSymbolTableRecord
100
AcDbLayerTableRecord
  2
0
 70
     0
 62
     7
  6
CONTINUOUS
370
    -3
390
1C45
  0
LAYER
  5
138A
102
{ACAD_XDICTIONARY
360
1D30
102
}
330
2
100
AcDbSymbolTableRecord
100
AcDbLayerTableRecord
  2
MSL-90-S16-0
 70
     0
 62
     7
  6
CONTINUOUS
370
    -3
390
1C45
  0
LAYER
  5
138B
102
{ACAD_XDICTIONARY
360
1D32
102
}
330
2
100
AcDbSymbolTableRecord
100
AcDbLayerTableRecord
  2
MSL-90-S16-3A
 70
     0
 62
     6
  6
ACAD_ISO02W100
370
    -3
390
1C45
  0
LAYER
  5
138C
102
{ACAD_XDICTIONARY
360
1D34
102
}
330
2
100
AcDbSymbolTableRecord
100
AcDbLayerTableRecord
  2
MSL-90-S16-5
 70
     0
 62
     3
  6
CONTINUOUS
370
    -3
390
1C45
  0
LAYER
  5
138D
102
{ACAD_XDICTIONARY
360
1D36
102
}
330
2
100
AcDbSymbolTableRecord
100
AcDbLayerTableRecord
  2
MSL-90-S16-7A
 70
     0
 62
     4
  6
ACAD_ISO10W100
370
    -3
390
1C45
  0
LAYER
  5
1394
102
{ACAD_XDICTIONARY
360
1D38
102
}
330
2
100
AcDbSymbolTableRecord
100
AcDbLayerTableRecord
  2
MSL-90-S16-6
 70
     0
 62
     2
  6
CONTINUOUS
370
    -3
390
1C45
  0
LAYER
  5
1BDC
330
2
100
AcDbSymbolTableRecord
100
AcDbLayerTableRecord
  2
DEFPOINTS
 70
     0
 62
     7
  6
CONTINUOUS
290
     0
370
    -3
390
1C45
  0
ENDTAB
  0
TABLE
  2
STYLE
  5
3
330
0
100
AcDbSymbolTable
 70
     4
  0
STYLE
  5
10
330
3
100
AcDbSymbolTableRecord
100
AcDbTextStyleTableRecord
  2
STANDARD
 70
     0
 40
0.0
 41
1.0
 50
0.0
 71
     0
 42
3.5
  3
ISOCP.SHX
  4

  0
STYLE
  5
1D10
330
3
100
AcDbSymbolTableRecord
100
AcDbTextStyleTableRecord
  2

 70
     1
 40
0.0
 41
1.0
 50
0.0
 71
     0
 42
3.5
  3
genltshp.shx
  4

  0
STYLE
  5
1D23
330
3
100
AcDbSymbolTableRecord
100
AcDbTextStyleTableRecord
  2
ACDINTS
 70
     0
 40
1.0
 41
1.0
 50
0.0
 71
     0
 42
3.5
  3
isocp.shx
  4

  0
STYLE
  5
1D24
330
3
100
AcDbSymbolTableRecord
100
AcDbTextStyleTableRecord
  2
ACDINGDT
 70
     0
 40
0.0
 41
1.0
 50
0.0
 71
     0
 42
3.5
  3
amgdt.shx
  4

  0
ENDTAB
  0
TABLE
  2
VIEW
  5
6
330
0
100
AcDbSymbolTable
 70
     0
  0
ENDTAB
  0
TABLE
  2
UCS
  5
7
330
0
100
AcDbSymbolTable
 70
     0
  0
ENDTAB
  0
TABLE
  2
APPID
  5
9
330
0
100
AcDbSymbolTable
 70
    15
  0
APPID
  5
11
330
9
100
AcDbSymbolTableRecord
100
AcDbRegAppTableRecord
  2
ACAD
 70
     0
  0
APPID
  5
1082
330
9
100
AcDbSymbolTableRecord
100
AcDbRegAppTableRecord
  2
CONTENTBLOCKICON
 70
     0
  0
APPID
  5
1280
330
9
100
AcDbSymbolTableRecord
100
AcDbRegAppTableRecord
  2
CONTENTBLOCKDESCRIPTION
 70
     0
  0
APPID
  5
1C87
330
9
100
AcDbSymbolTableRecord
100
AcDbRegAppTableRecord
  2
ACAD_MLEADERVER
 70
     0
  0
APPID
  5
1C94
330
9
100
AcDbSymbolTableRecord
100
AcDbRegAppTableRecord
  2
MCAD_NO_VIS
 70
     0
  0
APPID
  5
1C95
330
9
100
AcDbSymbolTableRecord
100
AcDbRegAppTableRecord
  2
ACAD_TEMP_GRAPHIC
 70
     0
  0
APPID
  5
1CC5
330
9
100
AcDbSymbolTableRecord
100
AcDbRegAppTableRecord
  2
AD_DRAW
 70
     0
  0
APPID
  5
1CC8
330
9
100
AcDbSymbolTableRecord
100
AcDbRegAppTableRecord
  2
ACATTRIBSERVICES
 70
     0
  0
APPID
  5
1CE9
330
9
100
AcDbSymbolTableRecord
100
AcDbRegAppTableRecord
  2
DESIGNERASSEMBLIES
 70
     0
  0
APPID
  5
1CEF
330
9
100
AcDbSymbolTableRecord
100
AcDbRegAppTableRecord
  2
ACADM_DIM_EDIT
 70
     0
  0
APPID
  5
1CF0
330
9
100
AcDbSymbolTableRecord
100
AcDbRegAppTableRecord
  2
AMDT_DM_ADJ
 70
     0
  0
APPID
  5
1D54
330
9
100
AcDbSymbolTableRecord
100
AcDbRegAppTableRecord
  2
ACAD_DSTYLE_DIMJOGGED_JOGANGLE_SYMBOL
 70
     0
  0
APPID
  5
1D55
330
9
100
AcDbSymbolTableRecord
100
AcDbRegAppTableRecord
  2
ACAD_DSTYLE_DIM_LINETYPE
 70
     0
  0
APPID
  5
1D56
330
9
100
AcDbSymbolTableRecord
100
AcDbRegAppTableRecord
  2
ACAD_DSTYLE_DIM_EXT1_LINETYPE
 70
     0
  0
APPID
  5
1D57
330
9
100
AcDbSymbolTableRecord
100
AcDbRegAppTableRecord
  2
ACAD_DSTYLE_DIM_EXT2_LINETYPE
 70
     0
  0
ENDTAB
  0
TABLE
  2
DIMSTYLE
  5
A
330
0
100
AcDbSymbolTable
 70
     8
100
AcDbDimStyleTable
 71
     0
  0
DIMSTYLE
105
24
102
{ACAD_REACTORS
330
1C36
102
}
330
A
100
AcDbSymbolTableRecord
100
AcDbDimStyleTableRecord
  2
GEN-ISO
 70
     0
 41
2.5
 42
1.0
 43
10.0
 44
2.0
 47
0.1
 48
0.1
 73
     0
 74
     0
 77
     1
 78
     8
140
3.5
141
-2.0
147
1.5
172
     1
178
     2
271
     2
272
     5
283
     0
284
     8
285
     8
286
     8
340
10
  0
DIMSTYLE
105
1D07
102
{ACAD_REACTORS
330
1CF6
102
}
330
A
100
AcDbSymbolTableRecord
100
AcDbDimStyleTableRecord
  2
AM_DIN
 70
     0
  4
"
 41
3.5
 42
1.0
 43
10.0
 44
1.0
 47
0.1
 48
0.1
 73
     0
 74
     0
 77
     1
 78
     8
 79
     2
140
3.5
141
0.0
143
0.0393701
146
0.71
147
1.5
172
     1
176
   256
177
   256
178
     2
271
     2
272
     3
274
     4
283
     0
284
     8
340
10
371
    -1
372
    -1
1001
ACAD_DSTYLE_DIMJOGGED_JOGANGLE_SYMBOL
1070
   384
1040
1.570796326794896
1001
ACAD_DSTYLE_DIM_LINETYPE
1070
   380
1005
12
1001
ACAD_DSTYLE_DIM_EXT1_LINETYPE
1070
   381
1005
12
1001
ACAD_DSTYLE_DIM_EXT2_LINETYPE
1070
   382
1005
12
  0
DIMSTYLE
105
1D17
330
A
100
AcDbSymbolTableRecord
100
AcDbDimStyleTableRecord
  2
AM_DIN$3
 70
     0
  4
"
 41
3.5
 42
1.0
 43
10.0
 44
1.0
 47
0.1
 48
0.1
 73
     0
 77
     1
 78
     8
 79
     2
140
3.5
141
0.0
143
0.0393701
146
0.71
147
1.5
176
   256
177
   256
178
     2
271
     2
272
     3
274
     4
283
     0
284
     8
288
     1
289
     0
340
10
371
    -1
372
    -1
1001
ACAD_DSTYLE_DIMJOGGED_JOGANGLE_SYMBOL
1070
   384
1040
1.570796326794896
1001
ACAD_DSTYLE_DIM_LINETYPE
1070
   380
1005
12
1001
ACAD_DSTYLE_DIM_EXT1_LINETYPE
1070
   381
1005
12
1001
ACAD_DSTYLE_DIM_EXT2_LINETYPE
1070
   382
1005
12
  0
DIMSTYLE
105
1D18
330
A
100
AcDbSymbolTableRecord
100
AcDbDimStyleTableRecord
  2
AM_DIN$4
 70
     0
  4
"
 41
3.5
 42
1.0
 43
10.0
 44
1.0
 47
0.1
 48
0.1
 73
     0
 77
     1
 78
     8
 79
     2
140
3.5
141
0.0
143
0.0393701
146
0.71
147
1.5
176
   256
177
   256
178
     2
271
     2
272
     3
274
     4
283
     0
284
     8
288
     1
289
     0
340
10
371
    -1
372
    -1
1001
ACAD_DSTYLE_DIMJOGGED_JOGANGLE_SYMBOL
1070
   384
1040
1.570796326794896
1001
ACAD_DSTYLE_DIM_LINETYPE
1070
   380
1005
12
1001
ACAD_DSTYLE_DIM_EXT1_LINETYPE
1070
   381
1005
12
1001
ACAD_DSTYLE_DIM_EXT2_LINETYPE
1070
   382
1005
12
  0
DIMSTYLE
105
1D19
330
A
100
AcDbSymbolTableRecord
100
AcDbDimStyleTableRecord
  2
AM_DIN$6
 70
     0
  4
"
 41
3.5
 42
1.0
 43
10.0
 44
1.0
 47
0.1
 48
0.1
 73
     0
 74
     0
 78
     8
 79
     2
140
3.5
141
0.0
143
0.0393701
146
0.71
147
1.5
172
     1
176
   256
177
   256
178
     2
271
     2
272
     3
274
     4
283
     0
284
     8
340
10
371
    -1
372
    -1
1001
ACAD_DSTYLE_DIMJOGGED_JOGANGLE_SYMBOL
1070
   384
1040
1.570796326794896
1001
ACAD_DSTYLE_DIM_LINETYPE
1070
   380
1005
12
1001
ACAD_DSTYLE_DIM_EXT1_LINETYPE
1070
   381
1005
12
1001
ACAD_DSTYLE_DIM_EXT2_LINETYPE
1070
   382
1005
12
  0
DIMSTYLE
105
1D1A
330
A
100
AcDbSymbolTableRecord
100
AcDbDimStyleTableRecord
  2
AM_DIN$7
 70
     0
  4
"
 41
3.5
 42
1.0
 43
10.0
 44
1.0
 47
0.1
 48
0.1
 73
     0
 74
     0
 77
     1
 78
     8
 79
     2
140
3.5
141
0.0
143
0.0393701
146
0.71
147
1.5
172
     1
176
   256
177
   256
178
     2
271
     2
272
     3
274
     4
283
     0
284
     8
340
10
371
    -1
372
    -1
1001
ACAD_DSTYLE_DIMJOGGED_JOGANGLE_SYMBOL
1070
   384
1040
1.570796326794896
1001
ACAD_DSTYLE_DIM_LINETYPE
1070
   380
1005
12
1001
ACAD_DSTYLE_DIM_EXT1_LINETYPE
1070
   381
1005
12
1001
ACAD_DSTYLE_DIM_EXT2_LINETYPE
1070
   382
1005
12
  0
DIMSTYLE
105
1D1B
330
A
100
AcDbSymbolTableRecord
100
AcDbDimStyleTableRecord
  2
AM_DIN$SF
 70
     0
  4
"
 41
3.5
 42
1.0
 43
10.0
 44
1.0
 47
0.1
 48
0.1
 73
     0
 74
     0
 75
     1
 76
     1
 77
     1
 78
     8
 79
     2
140
3.5
141
0.0
143
0.0393701
146
0.71
147
1.5
172
     1
176
   256
177
   256
178
     2
271
     2
272
     3
274
     4
283
     0
284
     8
340
10
371
    -1
372
    -1
1001
ACAD_DSTYLE_DIMJOGGED_JOGANGLE_SYMBOL
1070
   384
1040
1.570796326794896
1001
ACAD_DSTYLE_DIM_LINETYPE
1070
   380
1005
12
1001
ACAD_DSTYLE_DIM_EXT1_LINETYPE
1070
   381
1005
12
1001
ACAD_DSTYLE_DIM_EXT2_LINETYPE
1070
   382
1005
12
  0
DIMSTYLE
105
1D20
330
A
100
AcDbSymbolTableRecord
100
AcDbDimStyleTableRecord
  2
AM_DIN$SH
 70
     0
  4
"
 41
3.5
 42
1.0
 43
10.0
 44
1.0
 47
0.1
 48
0.1
 73
     0
 74
     0
 75
     1
 76
     1
 77
     1
 78
     8
 79
     2
140
3.5
141
0.0
143
0.0393701
144
2.0
146
0.71
147
1.5
172
     1
173
     1
176
   256
177
   256
178
     2
271
     2
272
     3
274
     4
283
     0
284
     8
340
10
343
1D1C
371
    -1
372
    -1
1001
ACAD_DSTYLE_DIMJOGGED_JOGANGLE_SYMBOL
1070
   384
1040
1.570796326794896
1001
ACAD_DSTYLE_DIM_LINETYPE
1070
   380
1005
12
1001
ACAD_DSTYLE_DIM_EXT1_LINETYPE
1070
   381
1005
12
1001
ACAD_DSTYLE_DIM_EXT2_LINETYPE
1070
   382
1005
12
  0
ENDTAB
  0
TABLE
  2
BLOCK_RECORD
  5
1
330
0
100
AcDbSymbolTable
 70
     6
  0
BLOCK_RECORD
  5
18
330
1
100
AcDbSymbolTableRecord
100
AcDbBlockTableRecord
  2
*MODEL_SPACE
340
1C8A
  0
BLOCK_RECORD
  5
15
330
1
100
AcDbSymbolTableRecord
100
AcDbBlockTableRecord
  2
*PAPER_SPACE
340
1C8B
  0
BLOCK_RECORD
  5
1C2A
330
1
100
AcDbSymbolTableRecord
100
AcDbBlockTableRecord
  2
*D3
340
0
  0
BLOCK_RECORD
  5
1D1C
330
1
100
AcDbSymbolTableRecord
100
AcDbBlockTableRecord
  2
GENAXEH
340
0
  0
ENDTAB
  0
ENDSEC
  0
SECTION
  2
BLOCKS
  0
BLOCK
  5
44
330
18
100
AcDbEntity
  8
0
100
AcDbBlockBegin
  2
*MODEL_SPACE
 70
     0
 10
0.0
 20
0.0
 30
0.0
  3
*MODEL_SPACE
  1

  0
ENDBLK
  5
45
330
18
100
AcDbEntity
  8
0
100
AcDbBlockEnd
  0
BLOCK
  5
42
330
15
100
AcDbEntity
 67
     1
  8
0
100
AcDbBlockBegin
  2
*PAPER_SPACE
 70
     0
 10
0.0
 20
0.0
 30
0.0
  3
*PAPER_SPACE
  1

  0
ENDBLK
  5
43
330
15
100
AcDbEntity
 67
     1
  8
0
100
AcDbBlockEnd
  0
BLOCK
  5
1C37
330
1C2A
100
AcDbEntity
  8
0
100
AcDbBlockBegin
  2
*D3
 70
     1
 10
0.0
 20
0.0
 30
0.0
  3
*D3
  1

  0
LINE
  5
1C38
330
1C2A
100
AcDbEntity
  8
0
  6
ByBlock
 62
     0
100
AcDbLine
 10
-112.5008576691758
 20
105.571632860641
 30
0.0
 11
-112.5008576691758
 21
92.48245746338682
 31
0.0
  0
LINE
  5
1C39
330
1C2A
100
AcDbEntity
  8
0
  6
ByBlock
 62
     0
100
AcDbLine
 10
207.4960113590791
 20
105.5716328606411
 30
0.0
 11
207.4960113590791
 21
92.48245746338682
 31
0.0
  0
LINE
  5
1C3A
330
1C2A
100
AcDbEntity
  8
0
  6
ByBlock
 62
     0
100
AcDbLine
 10
-110.0008576691758
 20
94.48245746338683
 30
0.0
 11
204.9960113590791
 21
94.48245746338683
 31
0.0
  0
SOLID
  5
1C3B
330
1C2A
100
AcDbEntity
  8
0
  6
ByBlock
 62
     0
100
AcDbTrace
 10
-110.0008576691758
 20
94.89912413005349
 30
0.0
 11
-110.0008576691758
 21
94.06579079672015
 31
0.0
 12
-112.5008576691758
 22
94.48245746338683
 32
0.0
 13
-112.5008576691758
 23
94.48245746338683
 33
0.0
  0
SOLID
  5
1C3C
330
1C2A
100
AcDbEntity
  8
0
  6
ByBlock
 62
     0
100
AcDbTrace
 10
204.9960113590791
 20
94.89912413005349
 30
0.0
 11
204.9960113590791
 21
94.06579079672015
 31
0.0
 12
207.4960113590791
 22
94.48245746338683
 32
0.0
 13
207.4960113590791
 23
94.48245746338683
 33
0.0
  0
MTEXT
  5
1C3D
330
1C2A
100
AcDbEntity
  8
0
  6
ByBlock
 62
     2
100
AcDbMText
 10
47.49757684495167
 20
97.7328019515758
 30
0.0
 40
3.5
 41
0.0
 71
     5
 72
     1
  1
320
 73
     1
 44
1.0
1001
ACAD
1000
MTEXTBEGIN
1070
    73
1070
     1
1070
    44
1040
1.0
1070
    74
1070
     0
1000
MTEXTEND
  0
POINT
  5
1C3E
330
1C2A
100
AcDbEntity
  8
DEFPOINTS
  6
ByBlock
 62
     0
100
AcDbPoint
 10
-112.5008576691758
 20
106.571632860641
 30
0.0
  0
POINT
  5
1C3F
330
1C2A
100
AcDbEntity
  8
DEFPOINTS
  6
ByBlock
 62
     0
100
AcDbPoint
 10
207.4960113590791
 20
106.5716328606411
 30
0.0
  0
POINT
  5
1C40
330
1C2A
100
AcDbEntity
  8
DEFPOINTS
  6
ByBlock
 62
     0
100
AcDbPoint
 10
207.4960113590791
 20
94.48245746338683
 30
0.0
  0
ENDBLK
  5
1C41
330
1C2A
100
AcDbEntity
  8
0
100
AcDbBlockEnd
  0
BLOCK
  5
1D1E
330
1D1C
100
AcDbEntity
  8
0
100
AcDbBlockBegin
  2
GENAXEH
 70
     0
 10
0.0
 20
0.0
 30
0.0
  3
GENAXEH
  1

  0
LINE
  5
1D1D
330
1D1C
100
AcDbEntity
  8
0
100
AcDbLine
 10
-1.0
 20
0.0
 30
0.0
 11
1.0
 21
0.0
 31
0.0
  0
ENDBLK
  5
1D1F
330
1D1C
100
AcDbEntity
  8
0
100
AcDbBlockEnd
  0
ENDSEC
  0
SECTION
  2
ENTITIES
  0
LINE
  5
C10
330
18
100
AcDbEntity
  8
MSL-90-S16-0
370
     0
100
AcDbLine
 10
-4.503988640920852
 20
179.071632860631
 30
0.0
 11
-29.50398864092083
 21
179.071632860631
 31
0.0
  0
LINE
  5
C11
330
18
100
AcDbEntity
  8
MSL-90-S16-0
370
     0
100
AcDbLine
 10
-4.503988640920852
 20
179.071632860631
 30
0.0
 11
-4.503988640920852
 21
174.0716328606315
 31
0.0
  0
LINE
  5
C12
330
18
100
AcDbEntity
  8
MSL-90-S16-0
370
     0
100
AcDbLine
 10
-4.503988640920852
 20
174.0716328606314
 30
0.0
 11
40.49601135907915
 21
174.0716328606314
 31
0.0
  0
LINE
  5
C13
330
18
100
AcDbEntity
  8
MSL-90-S16-0
370
     0
100
AcDbLine
 10
-4.503988640920852
 20
171.0716328606132
 30
0.0
 11
-4.503988640920852
 21
174.0716328606315
 31
0.0
  0
LINE
  5
C14
330
18
100
AcDbEntity
  8
MSL-90-S16-0
370
     0
100
AcDbLine
 10
193.4960113590791
 20
106.071632860637
 30
0.0
 11
193.4960113590791
 21
190.57163286064
 31
0.0
  0
LINE
  5
C15
330
18
100
AcDbEntity
  8
MSL-90-S16-0
370
     0
100
AcDbLine
 10
207.4960113590792
 20
190.57163286064
 30
0.0
 11
207.4960113590792
 21
187.5716328606411
 31
0.0
  0
LINE
  5
C16
330
18
100
AcDbEntity
  8
MSL-90-S16-0
370
     0
100
AcDbLine
 10
193.4960113590791
 20
106.5716328606411
 30
0.0
 11
207.4960113590791
 21
106.5716328606411
 31
0.0
  0
LINE
  5
C17
330
18
100
AcDbEntity
  8
MSL-90-S16-0
370
     0
100
AcDbLine
 10
193.4960113590791
 20
190.57163286064
 30
0.0
 11
207.4960113590791
 21
190.57163286064
 31
0.0
  0
LINE
  5
C18
330
18
100
AcDbEntity
  8
MSL-90-S16-0
370
     0
100
AcDbLine
 10
207.4960113590792
 20
187.5716328606411
 30
0.0
 11
193.4960113590792
 21
187.5716328606411
 31
0.0
  0
LINE
  5
C19
330
18
100
AcDbEntity
  8
MSL-90-S16-0
370
     0
100
AcDbLine
 10
207.4960113590792
 20
106.5716328606411
 30
0.0
 11
207.4960113590792
 21
187.5716328606411
 31
0.0
  0
LINE
  5
C3C
330
18
100
AcDbEntity
  8
MSL-90-S16-0
370
     0
100
AcDbLine
 10
-82.50085766917598
 20
190.57163286064
 30
0.0
 11
-82.50085766917585
 21
106.071632860637
 31
0.0
  0
LINE
  5
C42
330
18
100
AcDbEntity
  8
MSL-90-S16-0
370
     0
100
AcDbLine
 10
-79.50398864092074
 20
175.0716328606429
 30
0.0
 11
-69.50398864092074
 21
175.0716328606429
 31
0.0
  0
LINE
  5
C43
330
18
100
AcDbEntity
  8
MSL-90-S16-0
370
     0
100
AcDbLine
 10
-69.50398864092074
 20
174.5716328606427
 30
0.0
 11
-79.50398864092074
 21
174.5716328606427
 31
0.0
  0
LINE
  5
C44
330
18
100
AcDbEntity
  8
MSL-90-S16-0
370
     0
100
AcDbLine
 10
-79.50398864092074
 20
190.5716328606427
 30
0.0
 11
-69.50398864092074
 21
190.5716328606427
 31
0.0
  0
LINE
  5
C45
330
18
100
AcDbEntity
  8
MSL-90-S16-0
370
     0
100
AcDbLine
 10
-69.50398864092074
 20
190.0716328606428
 30
0.0
 11
-79.50398864092074
 21
190.0716328606428
 31
0.0
  0
LINE
  5
C46
330
18
100
AcDbEntity
  8
MSL-90-S16-0
370
     0
100
AcDbLine
 10
-79.50398864092074
 20
190.5716328606427
 30
0.0
 11
-79.50398864092074
 21
174.5716328606427
 31
0.0
  0
LINE
  5
C47
330
18
100
AcDbEntity
  8
MSL-90-S16-0
370
     0
100
AcDbLine
 10
80.4960113590792
 20
173.0716328606428
 30
0.0
 11
90.4960113590792
 21
173.0716328606428
 31
0.0
  0
LINE
  5
C48
330
18
100
AcDbEntity
  8
MSL-90-S16-0
370
     0
100
AcDbLine
 10
90.4960113590792
 20
190.0716328606428
 30
0.0
 11
80.4960113590792
 21
190.0716328606428
 31
0.0
  0
LINE
  5
C49
330
18
100
AcDbEntity
  8
MSL-90-S16-0
370
     0
100
AcDbLine
 10
90.4960113590792
 20
172.5716328606426
 30
0.0
 11
80.4960113590792
 21
172.5716328606426
 31
0.0
  0
LINE
  5
C4A
330
18
100
AcDbEntity
  8
MSL-90-S16-0
370
     0
100
AcDbLine
 10
80.4960113590792
 20
190.5716328606426
 30
0.0
 11
90.4960113590792
 21
190.5716328606426
 31
0.0
  0
LINE
  5
C4B
330
18
100
AcDbEntity
  8
MSL-90-S16-0
370
     0
100
AcDbLine
 10
90.4960113590792
 20
172.5716328606426
 30
0.0
 11
90.4960113590792
 21
190.5716328606426
 31
0.0
  0
ELLIPSE
  5
C4C
330
18
100
AcDbEntity
  8
MSL-90-S16-0
370
     0
100
AcDbEllipse
 10
60.4960113590792
 20
167.0459162238061
 30
0.0
 11
1.500000000000001
 21
0.0000000000008119
 31
0.0
210
0.0
220
0.0
230
1.0
 40
0.9925461516412893
 41
0.0
 42
3.141592653589793
  0
CIRCLE
  5
C4D
330
18
100
AcDbEntity
  8
MSL-90-S16-0
370
     0
100
AcDbCircle
 10
60.4960113590792
 20
173.0716328606428
 30
0.0
 40
4.0
  0
CIRCLE
  5
C4E
330
18
100
AcDbEntity
  8
MSL-90-S16-0
370
     0
100
AcDbCircle
 10
60.4960113590792
 20
173.0716328606428
 30
0.0
 40
3.75
  0
CIRCLE
  5
C4F
330
18
100
AcDbEntity
  8
MSL-90-S16-0
370
     0
100
AcDbCircle
 10
60.4960113590792
 20
173.0716328606428
 30
0.0
 40
3.000000000000002
  0
CIRCLE
  5
C50
330
18
100
AcDbEntity
  8
MSL-90-S16-0
370
     0
100
AcDbCircle
 10
60.4960113590792
 20
173.0716328606425
 30
0.0
 40
1.60432736353769
  0
LINE
  5
C51
330
18
100
AcDbEntity
  8
MSL-90-S16-0
370
     0
100
AcDbLine
 10
40.4960113590792
 20
154.5716328606428
 30
0.0
 11
80.49601135907918
 21
154.5716328606428
 31
0.0
  0
ELLIPSE
  5
C52
330
18
100
AcDbEntity
  8
MSL-90-S16-0
370
     0
100
AcDbEllipse
 10
60.4960113590792
 20
167.0975781155408
 30
0.0
 11
0.0000000000000006
 21
1.511264738188272
 31
0.0
210
0.0
220
0.0
230
1.0
 40
0.9925461516413221
 41
0.0
 42
6.283185307179586
  0
CIRCLE
  5
C53
330
18
100
AcDbEntity
  8
MSL-90-S16-0
370
     0
100
AcDbCircle
 10
60.4960113590792
 20
173.0716328606429
 30
0.0
 40
4.099999999999999
  0
LINE
  5
C54
330
18
100
AcDbEntity
  8
MSL-90-S16-0
370
     0
100
AcDbLine
 10
80.49601135907918
 20
154.5716328606428
 30
0.0
 11
80.4960113590792
 21
180.0716328606428
 31
0.0
  0
LINE
  5
C55
330
18
100
AcDbEntity
  8
MSL-90-S16-0
370
     0
100
AcDbLine
 10
40.4960113590792
 20
154.5716328606428
 30
0.0
 11
40.4960113590792
 21
180.0716328606428
 31
0.0
  0
ELLIPSE
  5
C56
330
18
100
AcDbEntity
  8
MSL-90-S16-0
370
     0
100
AcDbEllipse
 10
-49.50398864092079
 20
167.0459162238061
 30
0.0
 11
1.500000000000007
 21
0.0000000000008188
 31
0.0
210
0.0
220
0.0
230
1.0
 40
0.9925461516412639
 41
0.0
 42
3.141592653589793
  0
CIRCLE
  5
C57
330
18
100
AcDbEntity
  8
MSL-90-S16-0
370
     0
100
AcDbCircle
 10
-49.50398864092079
 20
173.0716328606428
 30
0.0
 40
4.0
  0
CIRCLE
  5
C58
330
18
100
AcDbEntity
  8
MSL-90-S16-0
370
     0
100
AcDbCircle
 10
-49.50398864092079
 20
173.0716328606429
 30
0.0
 40
3.75
  0
CIRCLE
  5
C59
330
18
100
AcDbEntity
  8
MSL-90-S16-0
370
     0
100
AcDbCircle
 10
-49.50398864092079
 20
173.0716328606429
 30
0.0
 40
3.000000000000002
  0
CIRCLE
  5
C5A
330
18
100
AcDbEntity
  8
MSL-90-S16-0
370
     0
100
AcDbCircle
 10
-49.50398864092079
 20
173.0716328606426
 30
0.0
 40
1.60432736353769
  0
LINE
  5
C5B
330
18
100
AcDbEntity
  8
MSL-90-S16-0
370
     0
100
AcDbLine
 10
-69.50398864092079
 20
154.5716328606429
 30
0.0
 11
-29.50398864092079
 21
154.5716328606429
 31
0.0
  0
ELLIPSE
  5
C5C
330
18
100
AcDbEntity
  8
MSL-90-S16-0
370
     0
100
AcDbEllipse
 10
-49.50398864092079
 20
167.0975781155408
 30
0.0
 11
0.0000000000000008
 21
1.511264738188272
 31
0.0
210
0.0
220
0.0
230
1.0
 40
0.9925461516413221
 41
0.0
 42
6.283185307179586
  0
CIRCLE
  5
C5D
330
18
100
AcDbEntity
  8
MSL-90-S16-0
370
     0
100
AcDbCircle
 10
-49.50398864092079
 20
173.0716328606429
 30
0.0
 40
4.099999999999999
  0
LINE
  5
C5E
330
18
100
AcDbEntity
  8
MSL-90-S16-0
370
     0
100
AcDbLine
 10
-29.50398864092079
 20
154.5716328606428
 30
0.0
 11
-29.50398864092077
 21
180.0716328606428
 31
0.0
  0
LINE
  5
C5F
330
18
100
AcDbEntity
  8
MSL-90-S16-0
370
     0
100
AcDbLine
 10
-69.50398864092079
 20
154.5716328606429
 30
0.0
 11
-69.50398864092074
 21
180.0716328606429
 31
0.0
  0
LINE
  5
C60
330
18
100
AcDbEntity
  8
MSL-90-S16-0
370
     0
100
AcDbLine
 10
80.4960113590792
 20
190.5716328606428
 30
0.0
 11
-69.50398864092074
 21
190.5716328606429
 31
0.0
  0
LINE
  5
C61
330
18
100
AcDbEntity
  8
MSL-90-S16-0
370
     0
100
AcDbLine
 10
-69.50398864092074
 20
191.0716328606428
 30
0.0
 11
80.4960113590792
 21
191.0716328606427
 31
0.0
  0
LINE
  5
C62
330
18
100
AcDbEntity
  8
MSL-90-S16-0
370
     0
100
AcDbLine
 10
80.4960113590792
 20
191.0716328606427
 30
0.0
 11
80.4960113590792
 21
190.5716328606428
 31
0.0
  0
LINE
  5
C63
330
18
100
AcDbEntity
  8
MSL-90-S16-0
370
     0
100
AcDbLine
 10
-69.50398864092074
 20
190.571632860643
 30
0.0
 11
-69.50398864092074
 21
191.0716328606428
 31
0.0
  0
LINE
  5
C64
330
18
100
AcDbEntity
  8
MSL-90-S16-0
370
     0
100
AcDbLine
 10
-69.50398864092074
 20
190.571632860643
 30
0.0
 11
-69.50398864092074
 21
180.071632860643
 31
0.0
  0
LINE
  5
C65
330
18
100
AcDbEntity
  8
MSL-90-S16-0
370
     0
100
AcDbLine
 10
80.4960113590792
 20
180.0716328606429
 30
0.0
 11
-69.50398864092074
 21
180.071632860643
 31
0.0
  0
LINE
  5
C66
330
18
100
AcDbEntity
  8
MSL-90-S16-0
370
     0
100
AcDbLine
 10
80.4960113590792
 20
190.5716328606428
 30
0.0
 11
80.4960113590792
 21
180.0716328606428
 31
0.0
  0
LINE
  5
C67
330
18
100
AcDbEntity
  8
MSL-90-S16-0
370
     0
100
AcDbLine
 10
-69.50398864092079
 20
171.071632860637
 30
0.0
 11
-82.50085766917594
 21
171.071632860637
 31
0.0
  0
LINE
  5
C68
330
18
100
AcDbEntity
  8
MSL-90-S16-0
370
     0
100
AcDbLine
 10
40.49601135907917
 20
171.071632860637
 30
0.0
 11
-29.50398864092083
 21
171.071632860637
 31
0.0
  0
LINE
  5
C69
330
18
100
AcDbEntity
  8
MSL-90-S16-0
370
     0
100
AcDbLine
 10
193.4960113590792
 20
171.071632860637
 30
0.0
 11
80.49601135907918
 21
171.071632860637
 31
0.0
  0
LINE
  5
C6A
330
18
100
AcDbEntity
  8
MSL-90-S16-0
370
     0
100
AcDbLine
 10
193.4960113590792
 20
106.071632860637
 30
0.0
 11
-82.50085766917585
 21
106.071632860637
 31
0.0
  0
LINE
  5
C6B
330
18
100
AcDbEntity
  8
MSL-90-S16-0
370
     0
100
AcDbLine
 10
193.4960113590792
 20
149.571632860637
 30
0.0
 11
-82.50085766917591
 21
149.571632860637
 31
0.0
  0
LINE
  5
C6C
330
18
100
AcDbEntity
  8
MSL-90-S16-0
370
     0
100
AcDbLine
 10
193.4960113590792
 20
119.071632860637
 30
0.0
 11
-82.50085766917587
 21
119.071632860637
 31
0.0
  0
LINE
  5
C6D
330
18
100
AcDbEntity
  8
MSL-90-S16-0
370
     0
100
AcDbLine
 10
193.4960113590792
 20
153.571632860637
 30
0.0
 11
-82.50085766917592
 21
153.571632860637
 31
0.0
  0
LINE
  5
C6E
330
18
100
AcDbEntity
  8
MSL-90-S16-0
370
     0
100
AcDbLine
 10
-69.50398864092074
 20
159.5868631734101
 30
0.0
 11
-82.50085766917592
 21
159.5868631734102
 31
0.0
  0
LINE
  5
C6F
330
18
100
AcDbEntity
  8
MSL-90-S16-0
370
     0
100
AcDbLine
 10
40.49601135907917
 20
159.5868631734101
 30
0.0
 11
-29.50398864092085
 21
159.5868631734101
 31
0.0
  0
LINE
  5
C70
330
18
100
AcDbEntity
  8
MSL-90-S16-0
370
     0
100
AcDbLine
 10
193.4960113590792
 20
159.5868631734106
 30
0.0
 11
80.49601135907918
 21
159.5868631734101
 31
0.0
  0
CIRCLE
  5
C8F
330
18
100
AcDbEntity
  8
MSL-90-S16-0
370
     0
100
AcDbCircle
 10
113.3388566981997
 20
-10.02822761843737
 30
0.0
 40
2.5
  0
CIRCLE
  5
C90
330
18
100
AcDbEntity
  8
MSL-90-S16-0
370
     0
100
AcDbCircle
 10
158.3388566981996
 20
49.97177238156266
 30
0.0
 40
2.5
  0
CIRCLE
  5
C91
330
18
100
AcDbEntity
  8
MSL-90-S16-0
370
     0
100
AcDbCircle
 10
135.8388566981996
 20
49.97177238156382
 30
0.0
 40
2.5
  0
CIRCLE
  5
C92
330
18
100
AcDbEntity
  8
MSL-90-S16-0
370
     0
100
AcDbCircle
 10
90.83885669819967
 20
49.97177238156382
 30
0.0
 40
2.5
  0
CIRCLE
  5
C93
330
18
100
AcDbEntity
  8
MSL-90-S16-0
370
     0
100
AcDbCircle
 10
180.8388566981996
 20
49.97177238156385
 30
0.0
 40
2.5
  0
CIRCLE
  5
C94
330
18
100
AcDbEntity
  8
MSL-90-S16-0
370
     0
100
AcDbCircle
 10
135.8388566981996
 20
-10.02822761843617
 30
0.0
 40
2.5
  0
CIRCLE
  5
C95
330
18
100
AcDbEntity
  8
MSL-90-S16-0
370
     0
100
AcDbCircle
 10
113.3388566981996
 20
49.97177238156382
 30
0.0
 40
2.5
  0
CIRCLE
  5
C96
330
18
100
AcDbEntity
  8
MSL-90-S16-0
370
     0
100
AcDbCircle
 10
158.3388566981997
 20
-10.02822761843614
 30
0.0
 40
2.5
  0
CIRCLE
  5
C97
330
18
100
AcDbEntity
  8
MSL-90-S16-0
370
     0
100
AcDbCircle
 10
180.8388566981996
 20
-10.02822761843612
 30
0.0
 40
2.5
  0
CIRCLE
  5
C98
330
18
100
AcDbEntity
  8
MSL-90-S16-0
370
     0
100
AcDbCircle
 10
90.83885669819972
 20
-10.02822761843617
 30
0.0
 40
2.5
  0
LINE
  5
C99
330
18
100
AcDbEntity
  8
MSL-90-S16-0
370
     0
100
AcDbLine
 10
60.8388566981996
 20
69.97177238156362
 30
0.0
 11
210.8388566981996
 21
69.97177238156371
 31
0.0
  0
LINE
  5
C9A
330
18
100
AcDbEntity
  8
MSL-90-S16-0
370
     0
100
AcDbLine
 10
210.8388566981996
 20
69.47177238156388
 30
0.0
 11
60.8388566981996
 21
69.47177238156379
 31
0.0
  0
LINE
  5
C9B
330
18
100
AcDbEntity
  8
MSL-90-S16-0
370
     0
100
AcDbLine
 10
210.8388566981996
 20
69.97177238156371
 30
0.0
 11
210.8388566981996
 21
69.47177238156388
 31
0.0
  0
LINE
  5
C9C
330
18
100
AcDbEntity
  8
MSL-90-S16-0
370
     0
100
AcDbLine
 10
60.83885669819972
 20
29.9717723815638
 30
0.0
 11
60.8388566981996
 21
69.47177238156379
 31
0.0
  0
LINE
  5
C9D
330
18
100
AcDbEntity
  8
MSL-90-S16-0
370
     0
100
AcDbLine
 10
210.8388566981996
 20
69.47177238156388
 30
0.0
 11
210.8388566981996
 21
29.97177238156388
 31
0.0
  0
LINE
  5
C9E
330
18
100
AcDbEntity
  8
MSL-90-S16-0
370
     0
100
AcDbLine
 10
210.8388566981996
 20
29.97177238156388
 30
0.0
 11
60.8388566981996
 21
29.9717723815638
 31
0.0
  0
LINE
  5
C9F
330
18
100
AcDbEntity
  8
MSL-90-S16-0
370
     0
100
AcDbLine
 10
60.83885669819972
 20
-29.5282276184362
 30
0.0
 11
60.83885669819972
 21
9.971772381563795
 31
0.0
  0
LINE
  5
CA0
330
18
100
AcDbEntity
  8
MSL-90-S16-0
370
     0
100
AcDbLine
 10
210.8388566981996
 20
9.97177238156388
 30
0.0
 11
210.8388566981997
 21
-29.52822761843612
 31
0.0
  0
LINE
  5
CA1
330
18
100
AcDbEntity
  8
MSL-90-S16-0
370
     0
100
AcDbLine
 10
60.83885669819972
 20
9.971772381563795
 30
0.0
 11
210.8388566981997
 21
9.97177238156388
 31
0.0
  0
LINE
  5
CA2
330
18
100
AcDbEntity
  8
MSL-90-S16-0
370
     0
100
AcDbLine
 10
60.8388566981996
 20
69.47177238156379
 30
0.0
 11
60.8388566981996
 21
69.97177238156362
 31
0.0
  0
LINE
  5
CA3
330
18
100
AcDbEntity
  8
MSL-90-S16-0
370
     0
100
AcDbLine
 10
60.83885669819972
 20
-30.02822761843641
 30
0.0
 11
60.83885669819972
 21
-29.52822761843624
 31
0.0
  0
LINE
  5
CA4
330
18
100
AcDbEntity
  8
MSL-90-S16-0
370
     0
100
AcDbLine
 10
210.8388566981997
 20
-29.52822761843612
 30
0.0
 11
210.8388566981997
 21
-30.02822761843632
 31
0.0
  0
LINE
  5
CA5
330
18
100
AcDbEntity
  8
MSL-90-S16-0
370
     0
100
AcDbLine
 10
60.83885669819972
 20
-29.5282276184362
 30
0.0
 11
210.8388566981997
 21
-29.52822761843612
 31
0.0
  0
LINE
  5
CA6
330
18
100
AcDbEntity
  8
MSL-90-S16-0
370
     0
100
AcDbLine
 10
210.8388566981997
 20
-30.02822761843632
 30
0.0
 11
60.83885669819972
 21
-30.02822761843641
 31
0.0
  0
CIRCLE
  5
CA7
330
18
100
AcDbEntity
  8
MSL-90-S16-0
370
     0
100
AcDbCircle
 10
158.3388566981996
 20
49.97177238156385
 30
0.0
 40
5.0
  0
LINE
  5
CA8
330
18
100
AcDbEntity
  8
MSL-90-S16-0
370
     0
100
AcDbLine
 10
210.8388566981996
 20
29.97177238156371
 30
0.0
 11
210.8388566981996
 21
9.97177238156371
 31
0.0
  0
LINE
  5
CA9
330
18
100
AcDbEntity
  8
MSL-90-S16-0
370
     0
100
AcDbLine
 10
60.83885669819972
 20
9.971772381563624
 30
0.0
 11
60.83885669819972
 21
29.97177238156363
 31
0.0
  0
CIRCLE
  5
CBA
330
18
100
AcDbEntity
  8
MSL-90-S16-0
370
     0
100
AcDbCircle
 10
113.3388566981997
 20
-10.02822761843617
 30
0.0
 40
5.0
  0
ARC
  5
CBB
330
18
100
AcDbEntity
  8
MSL-90-S16-5
370
     0
100
AcDbCircle
 10
135.8388566981996
 20
49.97177238156382
 30
0.0
 40
3.0
100
AcDbArc
 50
254.9999999999992
 51
194.9999999999994
  0
ARC
  5
CBC
330
18
100
AcDbEntity
  8
MSL-90-S16-5
370
     0
100
AcDbCircle
 10
180.8388566981996
 20
49.97177238156385
 30
0.0
 40
3.0
100
AcDbArc
 50
255.0000000000004
 51
194.9999999999995
  0
ARC
  5
CBD
330
18
100
AcDbEntity
  8
MSL-90-S16-5
370
     0
100
AcDbCircle
 10
158.3388566981996
 20
49.97177238156266
 30
0.0
 40
3.0
100
AcDbArc
 50
254.9999999999998
 51
194.9999999999994
  0
ARC
  5
CBE
330
18
100
AcDbEntity
  8
MSL-90-S16-5
370
     0
100
AcDbCircle
 10
90.83885669819967
 20
49.97177238156382
 30
0.0
 40
3.0
100
AcDbArc
 50
255.0000000000001
 51
195.0000000000001
  0
ARC
  5
CBF
330
18
100
AcDbEntity
  8
MSL-90-S16-5
370
     0
100
AcDbCircle
 10
113.3388566981996
 20
49.97177238156382
 30
0.0
 40
3.0
100
AcDbArc
 50
255.0000000000004
 51
194.9999999999995
  0
ARC
  5
CC0
330
18
100
AcDbEntity
  8
MSL-90-S16-5
370
     0
100
AcDbCircle
 10
135.8388566981996
 20
-10.02822761843617
 30
0.0
 40
3.0
100
AcDbArc
 50
255.0
 51
194.9999999999999
  0
ARC
  5
CC1
330
18
100
AcDbEntity
  8
MSL-90-S16-5
370
     0
100
AcDbCircle
 10
180.8388566981996
 20
-10.02822761843612
 30
0.0
 40
3.0
100
AcDbArc
 50
254.9999999999998
 51
195.0000000000001
  0
ARC
  5
CC2
330
18
100
AcDbEntity
  8
MSL-90-S16-5
370
     0
100
AcDbCircle
 10
158.3388566981997
 20
-10.02822761843614
 30
0.0
 40
3.0
100
AcDbArc
 50
254.9999999999998
 51
194.9999999999999
  0
ARC
  5
CC3
330
18
100
AcDbEntity
  8
MSL-90-S16-5
370
     0
100
AcDbCircle
 10
90.83885669819972
 20
-10.02822761843617
 30
0.0
 40
3.0
100
AcDbArc
 50
255.0000000000002
 51
195.0000000000001
  0
ARC
  5
CC4
330
18
100
AcDbEntity
  8
MSL-90-S16-5
370
     0
100
AcDbCircle
 10
113.3388566981997
 20
-10.02822761843737
 30
0.0
 40
3.0
100
AcDbArc
 50
255.0000000000005
 51
195.0000000000001
  0
LINE
  5
CC5
330
18
100
AcDbEntity
  8
MSL-90-S16-0
370
     0
100
AcDbLine
 10
210.8388566981996
 20
69.72177238156354
 30
0.0
 11
220.8388566981996
 21
69.72177238156354
 31
0.0
  0
LINE
  5
CC7
330
18
100
AcDbEntity
  8
MSL-90-S16-0
370
     0
100
AcDbLine
 10
210.8388566981997
 20
-29.27822761843632
 30
0.0
 11
220.8388566981997
 21
-29.27822761843632
 31
0.0
  0
LINE
  5
CC9
330
18
100
AcDbEntity
  8
MSL-90-S16-0
370
     0
100
AcDbLine
 10
220.8388566981997
 20
-29.77822761843649
 30
0.0
 11
210.8388566981997
 21
-29.77822761843649
 31
0.0
  0
LINE
  5
CCA
330
18
100
AcDbEntity
  8
MSL-90-S16-0
370
     0
100
AcDbLine
 10
210.8388566981996
 20
9.97177238156388
 30
0.0
 11
210.8388566981996
 21
29.97177238156371
 31
0.0
  0
LINE
  5
CCB
330
18
100
AcDbEntity
  8
MSL-90-S16-0
370
     0
100
AcDbLine
 10
220.8388566981997
 20
-29.77822761843649
 30
0.0
 11
220.8388566981996
 21
69.72177238156354
 31
0.0
  0
LINE
  5
CCC
330
18
100
AcDbEntity
  8
MSL-90-S16-0
370
     0
100
AcDbLine
 10
220.8388566981996
 20
69.22177238156371
 30
0.0
 11
210.8388566981996
 21
69.22177238156368
 31
0.0
  0
LINE
  5
CCD
330
18
100
AcDbEntity
  8
MSL-90-S16-0
370
     0
100
AcDbLine
 10
50.8388566981996
 20
69.72177238156345
 30
0.0
 11
60.8388566981996
 21
69.72177238156345
 31
0.0
  0
LINE
  5
CCE
330
18
100
AcDbEntity
  8
MSL-90-S16-0
370
     0
100
AcDbLine
 10
60.83885669819972
 20
-29.77822761843658
 30
0.0
 11
50.83885669819972
 21
-29.77822761843658
 31
0.0
  0
LINE
  5
CCF
330
18
100
AcDbEntity
  8
MSL-90-S16-0
370
     0
100
AcDbLine
 10
60.8388566981996
 20
29.9717723815636
 30
0.0
 11
60.8388566981996
 21
9.971772381563766
 31
0.0
  0
LINE
  5
CD2
330
18
100
AcDbEntity
  8
MSL-90-S16-0
370
     0
100
AcDbLine
 10
50.83885669819972
 20
-29.27822761843641
 30
0.0
 11
60.83885669819972
 21
-29.27822761843641
 31
0.0
  0
LINE
  5
CD3
330
18
100
AcDbEntity
  8
MSL-90-S16-0
370
     0
100
AcDbLine
 10
60.8388566981996
 20
69.22177238156365
 30
0.0
 11
50.8388566981996
 21
69.22177238156365
 31
0.0
  0
LINE
  5
CD4
330
18
100
AcDbEntity
  8
MSL-90-S16-0
370
     0
100
AcDbLine
 10
50.8388566981996
 20
69.72177238156345
 30
0.0
 11
50.83885669819972
 21
-29.77822761843658
 31
0.0
  0
LINE
  5
D46
330
18
100
AcDbEntity
  8
MSL-90-S16-0
370
     0
100
AcDbLine
 10
50.83885669819972
 20
-25.02822761843749
 30
0.0
 11
47.8388566981996
 21
-25.02822761843749
 31
0.0
  0
LINE
  5
D47
330
18
100
AcDbEntity
  8
MSL-90-S16-0
370
     0
100
AcDbLine
 10
47.8388566981996
 20
64.97177238156251
 30
0.0
 11
50.8388566981996
 21
64.97177238156251
 31
0.0
  0
LINE
  5
D48
330
18
100
AcDbEntity
  8
MSL-90-S16-0
370
     0
100
AcDbLine
 10
47.8388566981996
 20
64.97177238156251
 30
0.0
 11
47.8388566981996
 21
-25.02822761843749
 31
0.0
  0
LINE
  5
D6D
330
18
100
AcDbEntity
  8
MSL-90-S16-0
370
     0
100
AcDbLine
 10
337.8388566981997
 20
-25.02822761843743
 30
0.0
 11
220.8388566981997
 21
-25.02822761843743
 31
0.0
  0
LINE
  5
D6E
330
18
100
AcDbEntity
  8
MSL-90-S16-0
370
     0
100
AcDbLine
 10
220.8388566981996
 20
64.97177238156258
 30
0.0
 11
337.8388566981996
 21
64.9717723815626
 31
0.0
  0
LINE
  5
D6F
330
18
100
AcDbEntity
  8
MSL-90-S16-0
370
     0
100
AcDbLine
 10
323.8388566981996
 20
-22.02822761843635
 30
0.0
 11
337.8388566981996
 21
-22.02822761843635
 31
0.0
  0
LINE
  5
D70
330
18
100
AcDbEntity
  8
MSL-90-S16-0
370
     0
100
AcDbLine
 10
337.8388566981996
 20
61.97177238156365
 30
0.0
 11
323.8388566981996
 21
61.97177238156365
 31
0.0
  0
LINE
  5
D71
330
18
100
AcDbEntity
  8
MSL-90-S16-0
370
     0
100
AcDbLine
 10
323.8388566981996
 20
-25.02822761843743
 30
0.0
 11
323.8388566981996
 21
64.97177238156258
 31
0.0
  0
LINE
  5
D72
330
18
100
AcDbEntity
  8
MSL-90-S16-0
370
     0
100
AcDbLine
 10
337.8388566981996
 20
64.9717723815626
 30
0.0
 11
337.8388566981996
 21
61.97177238156365
 31
0.0
  0
LINE
  5
D73
330
18
100
AcDbEntity
  8
MSL-90-S16-0
370
     0
100
AcDbLine
 10
337.8388566981997
 20
-22.02822761843632
 30
0.0
 11
337.8388566981997
 21
-25.02822761843743
 31
0.0
  0
LINE
  5
D74
330
18
100
AcDbEntity
  8
MSL-90-S16-0
370
     0
100
AcDbLine
 10
337.8388566981997
 20
-22.02822761843632
 30
0.0
 11
337.8388566981997
 21
61.97177238156365
 31
0.0
  0
LINE
  5
D8D
330
18
100
AcDbEntity
  8
MSL-90-S16-0
100
AcDbLine
 10
220.8388566981996
 20
61.40927238155455
 30
0.0
 11
323.8388566981995
 21
61.4092723815547
 31
0.0
  0
LINE
  5
D8F
330
18
100
AcDbEntity
  8
MSL-90-S16-0
100
AcDbLine
 10
220.8388566981996
 20
45.40927238155456
 30
0.0
 11
323.8388566981996
 21
45.40927238155456
 31
0.0
  0
LINE
  5
D90
330
18
100
AcDbEntity
  8
MSL-90-S16-0
100
AcDbLine
 10
220.8388566981997
 20
-5.465727618445441
 30
0.0
 11
323.8388566981996
 21
-5.465727618445441
 31
0.0
  0
LINE
  5
D91
330
18
100
AcDbEntity
  8
MSL-90-S16-0
100
AcDbLine
 10
220.8388566981997
 20
-21.46572761844544
 30
0.0
 11
323.8388566981996
 21
-21.46572761844544
 31
0.0
  0
LINE
  5
D92
330
18
100
AcDbEntity
  8
MSL-90-S16-0
100
AcDbLine
 10
47.8388566981996
 20
-21.46572761844544
 30
0.0
 11
50.83885669819972
 21
-21.46572761844544
 31
0.0
  0
LINE
  5
D93
330
18
100
AcDbEntity
  8
MSL-90-S16-0
100
AcDbLine
 10
47.8388566981996
 20
-5.465727618445441
 30
0.0
 11
50.8388566981996
 21
-5.465727618445441
 31
0.0
  0
LINE
  5
D94
330
18
100
AcDbEntity
  8
MSL-90-S16-0
100
AcDbLine
 10
47.8388566981996
 20
61.40927238155455
 30
0.0
 11
50.8388566981996
 21
61.40927238155455
 31
0.0
  0
LINE
  5
D95
330
18
100
AcDbEntity
  8
MSL-90-S16-0
100
AcDbLine
 10
47.8388566981996
 20
45.40927238155456
 30
0.0
 11
50.8388566981996
 21
45.40927238155456
 31
0.0
  0
LINE
  5
D96
330
18
100
AcDbEntity
  8
MSL-90-S16-7A
100
AcDbLine
 10
45.34713912692256
 20
53.40927238155456
 30
0.0
 11
53.53028000557651
 21
53.40927238155456
 31
0.0
  0
LINE
  5
D97
330
18
100
AcDbEntity
  8
MSL-90-S16-7A
100
AcDbLine
 10
45.34713912692256
 20
-13.46572761844544
 30
0.0
 11
53.53028000557651
 21
-13.46572761844544
 31
0.0
  0
LINE
  5
D98
330
18
100
AcDbEntity
  8
MSL-90-S16-7A
100
AcDbLine
 10
218.3471391269226
 20
-13.46572761844544
 30
0.0
 11
326.5302800055766
 21
-13.46572761844544
 31
0.0
  0
LINE
  5
D99
330
18
100
AcDbEntity
  8
MSL-90-S16-7A
100
AcDbLine
 10
218.3471391269226
 20
53.40927238155456
 30
0.0
 11
326.5302800055765
 21
53.40927238155456
 31
0.0
  0
LINE
  5
DED
330
18
100
AcDbEntity
  8
MSL-90-S16-3A
370
     0
100
AcDbLine
 10
326.0513566982361
 20
108.5716338606119
 30
0.0
 11
329.9513566982361
 21
108.5716338606119
 31
0.0
  0
ARC
  5
DEE
330
18
100
AcDbEntity
  8
MSL-90-S16-3A
370
     0
100
AcDbCircle
 10
326.0513566982361
 20
107.9716338606119
 30
0.0
 40
0.5999999999999963
100
AcDbArc
 50
90.0
 51
180.0
  0
LINE
  5
DEF
330
18
100
AcDbEntity
  8
MSL-90-S16-3A
370
     0
100
AcDbLine
 10
325.4513566982361
 20
106.5716328606118
 30
0.0
 11
325.4513566982361
 21
107.9716338606119
 31
0.0
  0
LINE
  5
DF0
330
18
100
AcDbEntity
  8
MSL-90-S16-3A
370
     0
100
AcDbLine
 10
330.151356698236
 20
108.7716338606119
 30
0.0
 11
330.151356698236
 21
110.9887911481372
 31
0.0
  0
ARC
  5
DF1
330
18
100
AcDbEntity
  8
MSL-90-S16-3A
370
     0
100
AcDbCircle
 10
329.9513566982361
 20
108.7716338606119
 30
0.0
 40
0.2
100
AcDbArc
 50
270.0
 51
0.0
  0
LINE
  5
DF3
330
18
100
AcDbEntity
  8
MSL-90-S16-3A
370
     0
100
AcDbLine
 10
330.0927780544733
 20
111.1302125043746
 30
0.0
 11
325.9144013419988
 21
115.3085892168491
 31
0.0
  0
ARC
  5
DF4
330
18
100
AcDbEntity
  8
MSL-90-S16-3A
370
     0
100
AcDbCircle
 10
329.9513566982361
 20
110.9887911481372
 30
0.0
 40
0.2
100
AcDbArc
 50
0.0
 51
45.00000000000863
  0
ARC
  5
DF6
330
18
100
AcDbEntity
  8
MSL-90-S16-3A
370
     0
100
AcDbCircle
 10
322.3549465150835
 20
115.5671678606118
 30
0.0
 40
0.2
100
AcDbArc
 50
240.0000115675648
 51
270.0
  0
LINE
  5
DF7
330
18
100
AcDbEntity
  8
MSL-90-S16-3A
370
     0
100
AcDbLine
 10
325.7729799857615
 20
115.3671678606118
 30
0.0
 11
322.3549465150835
 21
115.3671678606118
 31
0.0
  0
ARC
  5
DF8
330
18
100
AcDbEntity
  8
MSL-90-S16-3A
370
     0
100
AcDbCircle
 10
321.4013566632673
 20
115.6558428000442
 30
0.0
 40
0.2000000000000034
100
AcDbArc
 50
60.00001156756126
 51
119.9999884324387
  0
LINE
  5
DF9
330
18
100
AcDbEntity
  8
MSL-90-S16-3A
370
     0
100
AcDbLine
 10
322.2549465500523
 20
115.3939627596658
 30
0.0
 11
321.5013566282985
 21
115.8290479009903
 31
0.0
  0
ARC
  5
DFB
330
18
100
AcDbEntity
  8
MSL-90-S16-3A
370
     0
100
AcDbCircle
 10
320.4477668639042
 20
115.5671678908956
 30
0.0
 40
0.2
100
AcDbArc
 50
270.0000000000163
 51
299.9999884324236
  0
LINE
  5
DFC
330
18
100
AcDbEntity
  8
MSL-90-S16-3A
370
     0
100
AcDbLine
 10
321.3013566982361
 20
115.8290479009902
 30
0.0
 11
320.5477668289354
 21
115.3939627899495
 31
0.0
  0
LINE
  5
DFD
330
18
100
AcDbEntity
  8
MSL-90-S16-3A
370
     0
100
AcDbLine
 10
316.888312069619
 20
115.3085892471318
 30
0.0
 11
312.7099353268579
 21
111.1302125043746
 31
0.0
  0
ARC
  5
DFE
330
18
100
AcDbEntity
  8
MSL-90-S16-3A
370
     0
100
AcDbCircle
 10
317.0297334258562
 20
115.1671678908944
 30
0.0
 40
0.2
100
AcDbArc
 50
90.00000000002447
 51
134.9999999999655
  0
LINE
  5
DFF
330
18
100
AcDbEntity
  8
MSL-90-S16-3A
370
     0
100
AcDbLine
 10
320.4477668639043
 20
115.3671678908956
 30
0.0
 11
317.0297334258561
 21
115.3671678908944
 31
0.0
  0
ARC
  5
E01
330
18
100
AcDbEntity
  8
MSL-90-S16-3A
370
     0
100
AcDbCircle
 10
312.8513566830951
 20
110.9887911481372
 30
0.0
 40
0.2
100
AcDbArc
 50
134.9999999999655
 51
180.0
  0
LINE
  5
E02
330
18
100
AcDbEntity
  8
MSL-90-S16-3A
370
     0
100
AcDbLine
 10
312.8513566830942
 20
108.5716338606119
 30
0.0
 11
316.7513566982361
 21
108.5716338606119
 31
0.0
  0
ARC
  5
E03
330
18
100
AcDbEntity
  8
MSL-90-S16-3A
370
     0
100
AcDbCircle
 10
312.8513566830942
 20
108.7716338606119
 30
0.0
 40
0.2
100
AcDbArc
 50
179.9999999999674
 51
270.0
  0
LINE
  5
E04
330
18
100
AcDbEntity
  8
MSL-90-S16-3A
370
     0
100
AcDbLine
 10
312.6513566830951
 20
110.9887911481372
 30
0.0
 11
312.6513566830941
 21
108.7716338606119
 31
0.0
  0
LINE
  5
E06
330
18
100
AcDbEntity
  8
MSL-90-S16-3A
370
     0
100
AcDbLine
 10
317.351356698236
 20
107.9716338606119
 30
0.0
 11
317.351356698236
 21
106.5716328606119
 31
0.0
  0
ARC
  5
E07
330
18
100
AcDbEntity
  8
MSL-90-S16-3A
370
     0
100
AcDbCircle
 10
316.7513566982361
 20
107.9716338606119
 30
0.0
 40
0.6000000000000104
100
AcDbArc
 50
0.0
 51
90.0
  0
ARC
  5
E12
330
18
100
AcDbEntity
  8
MSL-90-S16-3A
370
     0
100
AcDbCircle
 10
259.0513566982361
 20
107.9716338606119
 30
0.0
 40
0.6000000000000104
100
AcDbArc
 50
90.0
 51
180.0
  0
LINE
  5
E13
330
18
100
AcDbEntity
  8
MSL-90-S16-3A
370
     0
100
AcDbLine
 10
258.451356698236
 20
106.5716328606118
 30
0.0
 11
258.451356698236
 21
107.9716338606119
 31
0.0
  0
LINE
  5
E15
330
18
100
AcDbEntity
  8
MSL-90-S16-3A
370
     0
100
AcDbLine
 10
263.151356713378
 20
108.7716338606119
 30
0.0
 11
263.151356713377
 21
110.9887911481372
 31
0.0
  0
ARC
  5
E16
330
18
100
AcDbEntity
  8
MSL-90-S16-3A
370
     0
100
AcDbCircle
 10
262.951356713378
 20
108.7716338606119
 30
0.0
 40
0.2
100
AcDbArc
 50
270.0
 51
0.0
  0
LINE
  5
E17
330
18
100
AcDbEntity
  8
MSL-90-S16-3A
370
     0
100
AcDbLine
 10
259.0513566982361
 20
108.5716338606119
 30
0.0
 11
262.951356713378
 21
108.5716338606119
 31
0.0
  0
LINE
  5
E18
330
18
100
AcDbEntity
  8
MSL-90-S16-3A
370
     0
100
AcDbLine
 10
263.0927780696143
 20
111.1302125043746
 30
0.0
 11
258.9144013268532
 21
115.3085892471318
 31
0.0
  0
ARC
  5
E19
330
18
100
AcDbEntity
  8
MSL-90-S16-3A
370
     0
100
AcDbCircle
 10
262.951356713377
 20
110.9887911481372
 30
0.0
 40
0.2
100
AcDbArc
 50
0.0
 51
45.00000000003453
  0
LINE
  5
E1B
330
18
100
AcDbEntity
  8
MSL-90-S16-3A
370
     0
100
AcDbLine
 10
258.772979970616
 20
115.3671678908944
 30
0.0
 11
255.3549465325679
 21
115.3671678908956
 31
0.0
  0
ARC
  5
E1C
330
18
100
AcDbEntity
  8
MSL-90-S16-3A
370
     0
100
AcDbCircle
 10
258.7729799706159
 20
115.1671678908944
 30
0.0
 40
0.2
100
AcDbArc
 50
45.00000000003453
 51
89.99999999997553
  0
ARC
  5
E1D
330
18
100
AcDbEntity
  8
MSL-90-S16-3A
370
     0
100
AcDbCircle
 10
254.4013567332048
 20
115.6558428000442
 30
0.0
 40
0.2000000000000035
100
AcDbArc
 50
60.00001156756126
 51
119.9999884324317
  0
LINE
  5
E1E
330
18
100
AcDbEntity
  8
MSL-90-S16-3A
370
     0
100
AcDbLine
 10
255.2549465675368
 20
115.3939627899495
 30
0.0
 11
254.5013566982361
 21
115.8290479009902
 31
0.0
  0
ARC
  5
E1F
330
18
100
AcDbEntity
  8
MSL-90-S16-3A
370
     0
100
AcDbCircle
 10
255.354946532568
 20
115.5671678908956
 30
0.0
 40
0.2
100
AcDbArc
 50
240.0000115675694
 51
269.9999999999755
  0
LINE
  5
E21
330
18
100
AcDbEntity
  8
MSL-90-S16-3A
370
     0
100
AcDbLine
 10
254.3013567681736
 20
115.8290479009902
 30
0.0
 11
253.5477668464198
 21
115.3939627596657
 31
0.0
  0
ARC
  5
E22
330
18
100
AcDbEntity
  8
MSL-90-S16-3A
370
     0
100
AcDbCircle
 10
250.0297334107107
 20
115.1671678606119
 30
0.0
 40
0.2
100
AcDbArc
 50
90.0
 51
135.0000000000057
  0
LINE
  5
E23
330
18
100
AcDbEntity
  8
MSL-90-S16-3A
370
     0
100
AcDbLine
 10
253.4477668813886
 20
115.3671678606119
 30
0.0
 11
250.0297334107107
 21
115.3671678606118
 31
0.0
  0
ARC
  5
E24
330
18
100
AcDbEntity
  8
MSL-90-S16-3A
370
     0
100
AcDbCircle
 10
253.4477668813886
 20
115.5671678606118
 30
0.0
 40
0.2
100
AcDbArc
 50
270.0000000000081
 51
299.9999884324317
  0
LINE
  5
E25
330
18
100
AcDbEntity
  8
MSL-90-S16-3A
370
     0
100
AcDbLine
 10
245.6513566982361
 20
110.9887911481372
 30
0.0
 11
245.6513566982361
 21
108.7716338606119
 31
0.0
  0
ARC
  5
E26
330
18
100
AcDbEntity
  8
MSL-90-S16-3A
370
     0
100
AcDbCircle
 10
245.8513566982361
 20
110.9887911481373
 30
0.0
 40
0.2
100
AcDbArc
 50
134.9999999999884
 51
180.0
  0
LINE
  5
E27
330
18
100
AcDbEntity
  8
MSL-90-S16-3A
370
     0
100
AcDbLine
 10
249.8883120544734
 20
115.3085892168492
 30
0.0
 11
245.7099353419988
 21
111.1302125043746
 31
0.0
  0
ARC
  5
E28
330
18
100
AcDbEntity
  8
MSL-90-S16-3A
370
     0
100
AcDbCircle
 10
245.8513566982361
 20
108.7716338606119
 30
0.0
 40
0.2
100
AcDbArc
 50
180.0
 51
270.0
  0
LINE
  5
E2A
330
18
100
AcDbEntity
  8
MSL-90-S16-3A
370
     0
100
AcDbLine
 10
250.3513566982361
 20
107.9716338606119
 30
0.0
 11
250.3513566982361
 21
106.5716328606119
 31
0.0
  0
ARC
  5
E2B
330
18
100
AcDbEntity
  8
MSL-90-S16-3A
370
     0
100
AcDbCircle
 10
249.7513566982361
 20
107.9716338606119
 30
0.0
 40
0.5999999999999963
100
AcDbArc
 50
0.0
 51
90.0
  0
LINE
  5
E2C
330
18
100
AcDbEntity
  8
MSL-90-S16-3A
370
     0
100
AcDbLine
 10
245.8513566982361
 20
108.5716338606119
 30
0.0
 11
249.7513566982361
 21
108.5716338606119
 31
0.0
  0
LINE
  5
1282
330
18
100
AcDbEntity
  8
MSL-90-S16-7A
100
AcDbLine
 10
4.578507714573561
 20
19.97177238154708
 30
0.0
 11
342.4546681664578
 21
19.97177238154708
 31
0.0
  0
LINE
  5
1284
330
18
100
AcDbEntity
  8
MSL-90-S16-7A
100
AcDbLine
 10
-88.89220385081083
 20
165.0716328606132
 30
0.0
 11
-66.00134888706975
 21
165.0716328606132
 31
0.0
  0
LINE
  5
1285
330
18
100
AcDbEntity
  8
MSL-90-S16-7A
100
AcDbLine
 10
75.94467310753728
 20
165.0716328606132
 30
0.0
 11
200.2004209715969
 21
165.0716328606132
 31
0.0
  0
LINE
  5
1286
330
18
100
AcDbEntity
  8
MSL-90-S16-7A
100
AcDbLine
 10
-34.11218516420672
 20
165.0716328606132
 30
0.0
 11
45.90033667272906
 21
165.0716328606132
 31
0.0
  0
LINE
  5
1338
330
18
100
AcDbEntity
  8
MSL-90-S16-0
100
AcDbLine
 10
22.99601135907915
 20
192.5716328606428
 30
0.0
 11
32.99601135907904
 21
192.5716328606426
 31
0.0
  0
LINE
  5
1339
330
18
100
AcDbEntity
  8
MSL-90-S16-0
100
AcDbLine
 10
32.49601135907904
 20
193.0716328606426
 30
0.0
 11
23.49601135907915
 21
193.0716328606428
 31
0.0
  0
LINE
  5
133A
330
18
100
AcDbEntity
  8
MSL-90-S16-0
100
AcDbLine
 10
-12.50398864092096
 20
193.0716328606426
 30
0.0
 11
-21.50398864092085
 21
193.0716328606428
 31
0.0
  0
LINE
  5
133B
330
18
100
AcDbEntity
  8
MSL-90-S16-0
100
AcDbLine
 10
-22.00398864092085
 20
192.5716328606428
 30
0.0
 11
-12.00398864092096
 21
192.5716328606426
 31
0.0
  0
LINE
  5
133C
330
18
100
AcDbEntity
  8
MSL-90-S16-0
100
AcDbLine
 10
-21.50398864092085
 20
193.0716328606428
 30
0.0
 11
-22.00398864092085
 21
192.5716328606428
 31
0.0
  0
LINE
  5
133D
330
18
100
AcDbEntity
  8
MSL-90-S16-0
100
AcDbLine
 10
-22.00398864092085
 20
192.5716328606428
 30
0.0
 11
-22.00398864092091
 21
191.0716328606428
 31
0.0
  0
LINE
  5
133E
330
18
100
AcDbEntity
  8
MSL-90-S16-0
100
AcDbLine
 10
-12.00398864092096
 20
192.5716328606426
 30
0.0
 11
-12.50398864092096
 21
193.0716328606426
 31
0.0
  0
LINE
  5
133F
330
18
100
AcDbEntity
  8
MSL-90-S16-0
100
AcDbLine
 10
-12.00398864092096
 20
191.0716328606428
 30
0.0
 11
-12.00398864092096
 21
192.5716328606426
 31
0.0
  0
LINE
  5
1340
330
18
100
AcDbEntity
  8
MSL-90-S16-0
100
AcDbLine
 10
23.49601135907915
 20
193.0716328606428
 30
0.0
 11
22.99601135907915
 21
192.5716328606428
 31
0.0
  0
LINE
  5
1341
330
18
100
AcDbEntity
  8
MSL-90-S16-0
100
AcDbLine
 10
22.99601135907915
 20
192.5716328606428
 30
0.0
 11
22.99601135907909
 21
191.0716328606428
 31
0.0
  0
LINE
  5
1342
330
18
100
AcDbEntity
  8
MSL-90-S16-0
100
AcDbLine
 10
32.99601135907904
 20
192.5716328606426
 30
0.0
 11
32.49601135907904
 21
193.0716328606426
 31
0.0
  0
LINE
  5
1343
330
18
100
AcDbEntity
  8
MSL-90-S16-0
100
AcDbLine
 10
32.99601135907904
 20
191.0716328606428
 30
0.0
 11
32.99601135907904
 21
192.5716328606426
 31
0.0
  0
LINE
  5
1344
330
18
100
AcDbEntity
  8
MSL-90-S16-7A
100
AcDbLine
 10
-39.50398864092063
 20
194.3987518606429
 30
0.0
 11
-39.50398864092063
 21
178.0716328606429
 31
0.0
  0
LINE
  5
1345
330
18
100
AcDbEntity
  8
MSL-90-S16-7A
100
AcDbLine
 10
-39.50398864092085
 20
194.3987518606428
 30
0.0
 11
-39.50398864092085
 21
178.0716328606429
 31
0.0
  0
LINE
  5
1346
330
18
100
AcDbEntity
  8
MSL-90-S16-7A
100
AcDbLine
 10
-17.00398864092085
 20
194.3987518606428
 30
0.0
 11
-17.00398864092085
 21
178.0716328606429
 31
0.0
  0
LINE
  5
1347
330
18
100
AcDbEntity
  8
MSL-90-S16-7A
100
AcDbLine
 10
-17.00398864092085
 20
194.3987518606428
 30
0.0
 11
-17.00398864092085
 21
178.0716328606429
 31
0.0
  0
LINE
  5
1348
330
18
100
AcDbEntity
  8
MSL-90-S16-7A
100
AcDbLine
 10
5.496011359079147
 20
194.3987518606428
 30
0.0
 11
5.496011359079147
 21
178.0716328606429
 31
0.0
  0
LINE
  5
1349
330
18
100
AcDbEntity
  8
MSL-90-S16-7A
100
AcDbLine
 10
27.99601135907915
 20
194.3987518606428
 30
0.0
 11
27.99601135907912
 21
178.0716328606429
 31
0.0
  0
LINE
  5
134A
330
18
100
AcDbEntity
  8
MSL-90-S16-7A
100
AcDbLine
 10
50.49601135907915
 20
194.3987518606428
 30
0.0
 11
50.49601135907912
 21
178.0716328606429
 31
0.0
  0
LINE
  5
134D
330
18
100
AcDbEntity
  8
MSL-90-S16-7A
100
AcDbLine
 10
254.4013567332048
 20
194.3987518606429
 30
0.0
 11
254.4013567332047
 21
178.071632860643
 31
0.0
  0
LINE
  5
134E
330
18
100
AcDbEntity
  8
MSL-90-S16-0
100
AcDbLine
 10
258.9013567332046
 20
193.0716328606427
 30
0.0
 11
249.9013567332048
 21
193.0716328606428
 31
0.0
  0
LINE
  5
134F
330
18
100
AcDbEntity
  8
MSL-90-S16-0
100
AcDbLine
 10
249.4013567332047
 20
192.5716328606428
 30
0.0
 11
259.4013567332047
 21
192.5716328606427
 31
0.0
  0
LINE
  5
1350
330
18
100
AcDbEntity
  8
MSL-90-S16-0
100
AcDbLine
 10
249.4013567332047
 20
192.5716328606428
 30
0.0
 11
249.4013567332047
 21
191.0716328606428
 31
0.0
  0
LINE
  5
1351
330
18
100
AcDbEntity
  8
MSL-90-S16-0
100
AcDbLine
 10
249.9013567332048
 20
193.0716328606428
 30
0.0
 11
249.4013567332047
 21
192.5716328606428
 31
0.0
  0
LINE
  5
1352
330
18
100
AcDbEntity
  8
MSL-90-S16-0
100
AcDbLine
 10
259.4013567332047
 20
191.0716328606428
 30
0.0
 11
259.4013567332047
 21
192.5716328606427
 31
0.0
  0
LINE
  5
1353
330
18
100
AcDbEntity
  8
MSL-90-S16-0
100
AcDbLine
 10
259.4013567332047
 20
192.5716328606427
 30
0.0
 11
258.9013567332046
 21
193.0716328606427
 31
0.0
  0
LINE
  5
1354
330
18
100
AcDbEntity
  8
MSL-90-S16-7A
100
AcDbLine
 10
321.4013566632672
 20
194.3987518606429
 30
0.0
 11
321.4013566632672
 21
178.071632860643
 31
0.0
  0
LINE
  5
1355
330
18
100
AcDbEntity
  8
MSL-90-S16-0
100
AcDbLine
 10
325.9013566632671
 20
193.0716328606427
 30
0.0
 11
316.9013566632672
 21
193.0716328606428
 31
0.0
  0
LINE
  5
1356
330
18
100
AcDbEntity
  8
MSL-90-S16-0
100
AcDbLine
 10
316.4013566632672
 20
192.5716328606428
 30
0.0
 11
326.4013566632671
 21
192.5716328606427
 31
0.0
  0
LINE
  5
1357
330
18
100
AcDbEntity
  8
MSL-90-S16-0
100
AcDbLine
 10
316.4013566632672
 20
192.5716328606428
 30
0.0
 11
316.4013566632672
 21
191.0716328606428
 31
0.0
  0
LINE
  5
1358
330
18
100
AcDbEntity
  8
MSL-90-S16-0
100
AcDbLine
 10
316.9013566632672
 20
193.0716328606428
 30
0.0
 11
316.4013566632672
 21
192.5716328606428
 31
0.0
  0
LINE
  5
1359
330
18
100
AcDbEntity
  8
MSL-90-S16-0
100
AcDbLine
 10
326.4013566632671
 20
191.0716328606428
 30
0.0
 11
326.4013566632671
 21
192.5716328606427
 31
0.0
  0
LINE
  5
135A
330
18
100
AcDbEntity
  8
MSL-90-S16-0
100
AcDbLine
 10
326.4013566632671
 20
192.5716328606427
 30
0.0
 11
325.9013566632671
 21
193.0716328606427
 31
0.0
  0
LINE
  5
135D
330
18
100
AcDbEntity
  8
MSL-90-S16-7A
100
AcDbLine
 10
85.83885669819967
 20
49.97177238156382
 30
0.0
 11
185.8388566981996
 21
49.97177238156385
 31
0.0
  0
LINE
  5
135E
330
18
100
AcDbEntity
  8
MSL-90-S16-7A
100
AcDbLine
 10
90.83885669819967
 20
44.97177238156382
 30
0.0
 11
90.83885669819967
 21
54.97177238156382
 31
0.0
  0
LINE
  5
1360
330
18
100
AcDbEntity
  8
MSL-90-S16-7A
100
AcDbLine
 10
113.3388566981996
 20
44.97177238156382
 30
0.0
 11
113.3388566981996
 21
54.97177238156382
 31
0.0
  0
LINE
  5
1362
330
18
100
AcDbEntity
  8
MSL-90-S16-7A
100
AcDbLine
 10
135.8388566981996
 20
44.97177238156382
 30
0.0
 11
135.8388566981996
 21
54.97177238156382
 31
0.0
  0
LINE
  5
1364
330
18
100
AcDbEntity
  8
MSL-90-S16-7A
100
AcDbLine
 10
158.3388566981996
 20
42.97177238156265
 30
0.0
 11
158.3388566981996
 21
56.97177238156266
 31
0.0
  0
LINE
  5
1366
330
18
100
AcDbEntity
  8
MSL-90-S16-7A
100
AcDbLine
 10
180.8388566981996
 20
44.97177238156385
 30
0.0
 11
180.8388566981996
 21
54.97177238156385
 31
0.0
  0
LINE
  5
1368
330
18
100
AcDbEntity
  8
MSL-90-S16-7A
100
AcDbLine
 10
180.8388566981996
 20
-15.02822761843612
 30
0.0
 11
180.8388566981996
 21
-5.028227618436119
 31
0.0
  0
LINE
  5
136A
330
18
100
AcDbEntity
  8
MSL-90-S16-7A
100
AcDbLine
 10
158.3388566981997
 20
-15.02822761843615
 30
0.0
 11
158.3388566981997
 21
-5.028227618436147
 31
0.0
  0
LINE
  5
136C
330
18
100
AcDbEntity
  8
MSL-90-S16-7A
100
AcDbLine
 10
135.8388566981996
 20
-15.02822761843617
 30
0.0
 11
135.8388566981996
 21
-5.028227618436176
 31
0.0
  0
LINE
  5
136E
330
18
100
AcDbEntity
  8
MSL-90-S16-7A
100
AcDbLine
 10
113.3388566981997
 20
-17.02822761843737
 30
0.0
 11
113.3388566981997
 21
-3.028227618437369
 31
0.0
  0
LINE
  5
1370
330
18
100
AcDbEntity
  8
MSL-90-S16-7A
100
AcDbLine
 10
90.83885669819972
 20
-15.02822761843617
 30
0.0
 11
90.83885669819972
 21
-5.028227618436176
 31
0.0
  0
LINE
  5
1371
330
18
100
AcDbEntity
  8
MSL-90-S16-7A
100
AcDbLine
 10
85.83885669819972
 20
-10.02822761843617
 30
0.0
 11
185.8388566981996
 21
-10.02822761843612
 31
0.0
  0
MTEXT
  5
1395
330
18
100
AcDbEntity
  8
MSL-90-S16-6
100
AcDbMText
 10
-81.50566339166164
 20
123.9501513816047
 30
0.0
 40
3.5
 41
36.88288880821585
 71
     1
 72
     5
  1
MSL 90-S16-100
 73
     1
 44
1.0
1001
ACAD
1000
MTEXTBEGIN
1070
    73
1070
     1
1070
    44
1040
1.0
1070
    74
1070
     0
1000
MTEXTEND
  0
LINE
  5
186A
330
18
100
AcDbEntity
  8
MSL-90-S16-7A
370
     0
100
AcDbLine
 10
287.9013566981909
 20
175.8216329146419
 30
0.0
 11
287.9013566982033
 21
112.3216328066084
 31
0.0
  0
LINE
  5
186B
330
18
100
AcDbEntity
  8
MSL-90-S16-7A
370
     0
100
AcDbLine
 10
256.1513566441866
 20
144.0716328606252
 30
0.0
 11
319.6513567522199
 21
144.0716328606252
 31
0.0
  0
LINE
  5
19B4
330
18
100
AcDbEntity
  8
MSL-90-S16-0
370
     0
100
AcDbLine
 10
17.83885669819955
 20
64.97177238154603
 30
0.0
 11
47.83885669819954
 21
64.97177238154603
 31
0.0
  0
LINE
  5
19B5
330
18
100
AcDbEntity
  8
MSL-90-S16-0
370
     0
100
AcDbLine
 10
17.83885669819955
 20
61.97177238154708
 30
0.0
 11
17.83885669819955
 21
64.97177238154603
 31
0.0
  0
LINE
  5
19B7
330
18
100
AcDbEntity
  8
MSL-90-S16-0
370
     0
100
AcDbLine
 10
17.83885669819955
 20
61.97177238154708
 30
0.0
 11
17.83885669819955
 21
-22.02822761845292
 31
0.0
  0
LINE
  5
19B8
330
18
100
AcDbEntity
  8
MSL-90-S16-0
370
     0
100
AcDbLine
 10
47.83885669819954
 20
61.97177238154708
 30
0.0
 11
17.83885669819955
 21
61.97177238154708
 31
0.0
  0
LINE
  5
19B9
330
18
100
AcDbEntity
  8
MSL-90-S16-0
370
     0
100
AcDbLine
 10
17.83885669819949
 20
-22.02822761845292
 30
0.0
 11
47.83885669819949
 21
-22.02822761845295
 31
0.0
  0
LINE
  5
19BA
330
18
100
AcDbEntity
  8
MSL-90-S16-0
370
     0
100
AcDbLine
 10
17.83885669819955
 20
-25.02822761845397
 30
0.0
 11
17.83885669819955
 21
-22.02822761845289
 31
0.0
  0
LINE
  5
19BB
330
18
100
AcDbEntity
  8
MSL-90-S16-0
370
     0
100
AcDbLine
 10
47.83885669819954
 20
-25.028227618454
 30
0.0
 11
17.83885669819955
 21
-25.028227618454
 31
0.0
  0
LINE
  5
19BC
330
18
100
AcDbEntity
  8
MSL-90-S16-0
370
     0
100
AcDbLine
 10
5.338856698199606
 20
15.97177238153063
 30
0.0
 11
5.338856698199606
 21
23.97177238153054
 31
0.0
  0
LINE
  5
19BD
330
18
100
AcDbEntity
  8
MSL-90-S16-0
370
     0
100
AcDbLine
 10
5.838856698199606
 20
24.47177238153054
 30
0.0
 11
5.838856698199606
 21
15.47177238153065
 31
0.0
  0
LINE
  5
19BE
330
18
100
AcDbEntity
  8
MSL-90-S16-0
370
     0
100
AcDbLine
 10
17.83885669819955
 20
24.47177238153057
 30
0.0
 11
5.838856698199606
 21
24.47177238153057
 31
0.0
  0
LINE
  5
19BF
330
18
100
AcDbEntity
  8
MSL-90-S16-0
370
     0
100
AcDbLine
 10
5.838856698199606
 20
15.4717723815306
 30
0.0
 11
17.83885669819955
 21
15.47177238153057
 31
0.0
  0
LINE
  5
19C0
330
18
100
AcDbEntity
  8
MSL-90-S16-0
370
     0
100
AcDbLine
 10
5.838856698199606
 20
24.47177238153057
 30
0.0
 11
5.338856698199606
 21
23.97177238153057
 31
0.0
  0
LINE
  5
19C1
330
18
100
AcDbEntity
  8
MSL-90-S16-0
370
     0
100
AcDbLine
 10
5.338856698199606
 20
15.9717723815306
 30
0.0
 11
5.838856698199606
 21
15.4717723815306
 31
0.0
  0
LINE
  5
1A03
330
18
100
AcDbEntity
  8
MSL-90-S16-0
370
     0
100
AcDbLine
 10
-112.5008576691759
 20
187.571632860641
 30
0.0
 11
-112.5008576691758
 21
106.571632860641
 31
0.0
  0
LINE
  5
1A04
330
18
100
AcDbEntity
  8
MSL-90-S16-0
370
     0
100
AcDbLine
 10
-82.5008576691758
 20
106.5716328606411
 30
0.0
 11
-112.5008576691758
 21
106.571632860641
 31
0.0
  0
LINE
  5
1A05
330
18
100
AcDbEntity
  8
MSL-90-S16-0
370
     0
100
AcDbLine
 10
-112.5008576691759
 20
190.5716328606399
 30
0.0
 11
-82.50085766917598
 21
190.57163286064
 31
0.0
  0
LINE
  5
1A07
330
18
100
AcDbEntity
  8
MSL-90-S16-0
370
     0
100
AcDbLine
 10
-112.5008576691759
 20
187.571632860641
 30
0.0
 11
-112.5008576691759
 21
190.5716328606399
 31
0.0
  0
LINE
  5
1A08
330
18
100
AcDbEntity
  8
MSL-90-S16-0
370
     0
100
AcDbLine
 10
-82.50085766917591
 20
187.571632860641
 30
0.0
 11
-112.5008576691759
 21
187.571632860641
 31
0.0
  0
LINE
  5
1A09
330
18
100
AcDbEntity
  8
MSL-90-S16-0
370
     0
100
AcDbLine
 10
-112.5008576691758
 20
148.571632860625
 30
0.0
 11
-124.5008576691758
 21
148.571632860625
 31
0.0
  0
LINE
  5
1A0A
330
18
100
AcDbEntity
  8
MSL-90-S16-0
370
     0
100
AcDbLine
 10
-124.5008576691758
 20
139.571632860625
 30
0.0
 11
-112.5008576691758
 21
139.571632860625
 31
0.0
  0
LINE
  5
1A0C
330
18
100
AcDbEntity
  8
MSL-90-S16-0
370
     0
100
AcDbLine
 10
-124.5008576691758
 20
139.571632860625
 30
0.0
 11
-124.5008576691758
 21
148.571632860625
 31
0.0
  0
LINE
  5
1A36
330
18
100
AcDbEntity
  8
MSL-90-S16-0
370
     0
100
AcDbLine
 10
-27.46769876432387
 20
-8.081763780328785
 30
0.0
 11
-27.46769876432387
 21
-9.644263780290813
 31
0.0
  0
LINE
  5
1A37
330
18
100
AcDbEntity
  8
MSL-90-S16-0
370
     0
100
AcDbLine
 10
-27.96769876432086
 20
-5.081763780328785
 30
0.0
 11
-27.46769876432387
 21
-5.081763780328785
 31
0.0
  0
LINE
  5
1A38
330
18
100
AcDbEntity
  8
MSL-90-S16-0
370
     0
100
AcDbLine
 10
-27.96769876432711
 20
-22.58176378032878
 30
0.0
 11
-27.46769876432384
 21
-22.58176378032878
 31
0.0
  0
LINE
  5
1A39
330
18
100
AcDbEntity
  8
MSL-90-S16-0
370
     0
100
AcDbLine
 10
-27.46769876432387
 20
4.40573621970914
 30
0.0
 11
-27.46769876432387
 21
-5.081763780328785
 31
0.0
  0
ARC
  5
1A3A
330
18
100
AcDbEntity
  8
MSL-90-S16-0
370
     0
100
AcDbCircle
 10
-27.66769876432383
 20
4.40573621970914
 30
0.0
 40
0.2
100
AcDbArc
 50
0.0
 51
90.0
  0
LINE
  5
1A3B
330
18
100
AcDbEntity
  8
MSL-90-S16-0
370
     0
100
AcDbLine
 10
-27.76769876432382
 20
4.605736219709186
 30
0.0
 11
-27.66769876432383
 21
4.605736219709186
 31
0.0
  0
ARC
  5
1A3C
330
18
100
AcDbEntity
  8
MSL-90-S16-0
370
     0
100
AcDbCircle
 10
-27.66769876432383
 20
-25.19426378029077
 30
0.0
 40
0.2
100
AcDbArc
 50
270.0
 51
0.0
  0
LINE
  5
1A3D
330
18
100
AcDbEntity
  8
MSL-90-S16-0
370
     0
100
AcDbLine
 10
-27.66769876432383
 20
-25.39426378029081
 30
0.0
 11
-27.96769876432811
 21
-25.39426378029081
 31
0.0
  0
LINE
  5
1A3E
330
18
100
AcDbEntity
  8
MSL-90-S16-0
370
     0
100
AcDbLine
 10
-27.46769876432387
 20
-22.58176378032878
 30
0.0
 11
-27.46769876432387
 21
-25.19426378029077
 31
0.0
  0
LINE
  5
1A3F
330
18
100
AcDbEntity
  8
MSL-90-S16-0
370
     0
100
AcDbLine
 10
-27.46769876432387
 20
-18.14426378029081
 30
0.0
 11
-27.46769876432387
 21
-19.58176378032878
 31
0.0
  0
LINE
  5
1A40
330
18
100
AcDbEntity
  8
MSL-90-S16-0
370
     0
100
AcDbLine
 10
-27.46769876432387
 20
-5.081763780328785
 30
0.0
 11
-27.46769876432387
 21
-8.081763780328785
 31
0.0
  0
LINE
  5
1A41
330
18
100
AcDbEntity
  8
MSL-90-S16-0
370
     0
100
AcDbLine
 10
-27.46769876432387
 20
-19.58176378032878
 30
0.0
 11
-27.46769876432387
 21
-22.58176378032878
 31
0.0
  0
ARC
  5
1A42
330
18
100
AcDbEntity
  8
MSL-90-S16-0
370
     0
100
AcDbCircle
 10
-27.66769876432383
 20
57.35573621970918
 30
0.0
 40
0.2
100
AcDbArc
 50
270.0
 51
0.0
  0
ARC
  5
1A43
330
18
100
AcDbEntity
  8
MSL-90-S16-0
370
     0
100
AcDbCircle
 10
-27.66769876432383
 20
-18.14426378029081
 30
0.0
 40
0.2
100
AcDbArc
 50
0.0
 51
90.0
  0
ARC
  5
1A44
330
18
100
AcDbEntity
  8
MSL-90-S16-0
370
     0
100
AcDbCircle
 10
-27.66769876432383
 20
64.40573621970914
 30
0.0
 40
0.2
100
AcDbArc
 50
0.0
 51
90.0
  0
LINE
  5
1A45
330
18
100
AcDbEntity
  8
MSL-90-S16-0
370
     0
100
AcDbLine
 10
-27.46769876432387
 20
64.40573621970914
 30
0.0
 11
-27.46769876432387
 21
61.79323621974716
 31
0.0
  0
LINE
  5
1A46
330
18
100
AcDbEntity
  8
MSL-90-S16-0
370
     0
100
AcDbLine
 10
-27.96769876429593
 20
64.60573621970919
 30
0.0
 11
-27.66769876432383
 21
64.60573621970919
 31
0.0
  0
LINE
  5
1A47
330
18
100
AcDbEntity
  8
MSL-90-S16-0
370
     0
100
AcDbLine
 10
-27.66769876432383
 20
34.60573621970919
 30
0.0
 11
-27.76769876432382
 21
34.60573621970919
 31
0.0
  0
ARC
  5
1A48
330
18
100
AcDbEntity
  8
MSL-90-S16-0
370
     0
100
AcDbCircle
 10
-27.66769876432383
 20
34.80573621970923
 30
0.0
 40
0.2
100
AcDbArc
 50
270.0
 51
0.0
  0
LINE
  5
1A49
330
18
100
AcDbEntity
  8
MSL-90-S16-0
370
     0
100
AcDbLine
 10
-27.46769876432387
 20
44.29323621974716
 30
0.0
 11
-27.46769876432387
 21
34.80573621970923
 31
0.0
  0
ARC
  5
1A4A
330
18
100
AcDbEntity
  8
MSL-90-S16-0
370
     0
100
AcDbCircle
 10
-27.76769876432382
 20
4.805736219709231
 30
0.0
 40
0.2
100
AcDbArc
 50
180.0
 51
270.0
  0
ARC
  5
1A4B
330
18
100
AcDbEntity
  8
MSL-90-S16-0
370
     0
100
AcDbCircle
 10
-27.76769876432382
 20
34.40573621970914
 30
0.0
 40
0.2
100
AcDbArc
 50
90.0
 51
180.0
  0
LINE
  5
1A4C
330
18
100
AcDbEntity
  8
MSL-90-S16-0
370
     0
100
AcDbLine
 10
-27.46769876432387
 20
61.79323621974716
 30
0.0
 11
-27.46769876432387
 21
58.79323621974716
 31
0.0
  0
ARC
  5
1A4D
330
18
100
AcDbEntity
  8
MSL-90-S16-0
370
     0
100
AcDbCircle
 10
-27.66769876432383
 20
48.85573621970919
 30
0.0
 40
0.2
100
AcDbArc
 50
0.0
 51
90.0
  0
LINE
  5
1A4E
330
18
100
AcDbEntity
  8
MSL-90-S16-0
370
     0
100
AcDbLine
 10
-27.96769876429692
 20
61.79323621974716
 30
0.0
 11
-27.46769876432387
 21
61.79323621974716
 31
0.0
  0
LINE
  5
1A4F
330
18
100
AcDbEntity
  8
MSL-90-S16-0
370
     0
100
AcDbLine
 10
-27.9676987643015
 20
49.05573621970923
 30
0.0
 11
-27.66769876432385
 21
49.05573621970923
 31
0.0
  0
LINE
  5
1A50
330
18
100
AcDbEntity
  8
MSL-90-S16-0
370
     0
100
AcDbLine
 10
-27.66769876432383
 20
57.15573621970914
 30
0.0
 11
-27.96769876429857
 21
57.15573621970914
 31
0.0
  0
LINE
  5
1A51
330
18
100
AcDbEntity
  8
MSL-90-S16-0
370
     0
100
AcDbLine
 10
-27.9676987643032
 20
44.29323621974716
 30
0.0
 11
-27.46769876432387
 21
44.29323621974716
 31
0.0
  0
LINE
  5
1A52
330
18
100
AcDbEntity
  8
MSL-90-S16-0
370
     0
100
AcDbLine
 10
-27.46769876432387
 20
58.79323621974716
 30
0.0
 11
-27.46769876432387
 21
57.35573621970918
 31
0.0
  0
LINE
  5
1A53
330
18
100
AcDbEntity
  8
MSL-90-S16-0
370
     0
100
AcDbLine
 10
-27.46769876432387
 20
47.29323621974716
 30
0.0
 11
-27.46769876432387
 21
44.29323621974716
 31
0.0
  0
ARC
  5
1A54
330
18
100
AcDbEntity
  8
MSL-90-S16-0
370
     0
100
AcDbCircle
 10
-27.66769876432383
 20
-9.644263780290813
 30
0.0
 40
0.2
100
AcDbArc
 50
270.0
 51
0.0
  0
LINE
  5
1A55
330
18
100
AcDbEntity
  8
MSL-90-S16-0
370
     0
100
AcDbLine
 10
-27.66769876432383
 20
-9.844263780290859
 30
0.0
 11
-27.96769876432254
 21
-9.844263780290859
 31
0.0
  0
LINE
  5
1A56
330
18
100
AcDbEntity
  8
MSL-90-S16-0
370
     0
100
AcDbLine
 10
-27.46769876432387
 20
48.85573621970919
 30
0.0
 11
-27.46769876432387
 21
47.29323621974716
 31
0.0
  0
LINE
  5
1A57
330
18
100
AcDbEntity
  8
MSL-90-S16-0
370
     0
100
AcDbLine
 10
-27.96769876432549
 20
-17.94426378029077
 30
0.0
 11
-27.66769876432386
 21
-17.94426378029077
 31
0.0
  0
LINE
  5
1A58
330
18
100
AcDbEntity
  8
MSL-90-S16-0
370
     0
100
AcDbLine
 10
-111.9676987642941
 20
69.60573621975853
 30
0.0
 11
-112.4676987642942
 21
69.10573621975875
 31
0.0
  0
LINE
  5
1A59
330
18
100
AcDbEntity
  8
MSL-90-S16-0
370
     0
100
AcDbLine
 10
-101.4676987643296
 20
-30.14426378024511
 30
0.0
 11
-101.4676987643297
 21
-30.39426378024511
 31
0.0
  0
LINE
  5
1A5A
330
18
100
AcDbEntity
  8
MSL-90-S16-0
370
     0
100
AcDbLine
 10
-101.4676987642941
 20
69.60573621975489
 30
0.0
 11
-101.4676987642942
 21
69.35573621975489
 31
0.0
  0
LINE
  5
1A5B
330
18
100
AcDbEntity
  8
MSL-90-S16-0
370
     0
100
AcDbLine
 10
-111.9676987643297
 20
-30.39426378024148
 30
0.0
 11
-101.4676987643297
 21
-30.39426378024522
 31
0.0
  0
LINE
  5
1A5C
330
18
100
AcDbEntity
  8
MSL-90-S16-0
370
     0
100
AcDbLine
 10
-112.4676987643155
 20
9.605736219758753
 30
0.0
 11
-112.4676987643296
 21
-29.89426378024125
 31
0.0
  0
LINE
  5
1A5D
330
18
100
AcDbEntity
  8
MSL-90-S16-0
370
     0
100
AcDbLine
 10
-112.4676987642942
 20
69.10573621975875
 30
0.0
 11
-112.4676987643083
 21
29.60573621975875
 31
0.0
  0
LINE
  5
1A5E
330
18
100
AcDbEntity
  8
MSL-90-S16-0
370
     0
100
AcDbLine
 10
-111.9676987642941
 20
69.60573621975853
 30
0.0
 11
-101.4676987642941
 21
69.60573621975489
 31
0.0
  0
LINE
  5
1A5F
330
18
100
AcDbEntity
  8
MSL-90-S16-0
370
     0
100
AcDbLine
 10
-112.4676987643296
 20
-29.89426378024125
 30
0.0
 11
-111.9676987643297
 21
-30.39426378024148
 31
0.0
  0
LINE
  5
1A60
330
18
100
AcDbEntity
  8
MSL-90-S16-0
370
     0
100
AcDbLine
 10
-111.9676987643155
 20
9.605736219758526
 30
0.0
 11
-112.4676987643155
 21
9.605736219758753
 31
0.0
  0
LINE
  5
1A61
330
18
100
AcDbEntity
  8
MSL-90-S16-0
370
     0
100
AcDbLine
 10
-112.4676987643083
 20
29.60573621975875
 30
0.0
 11
-111.9676987643083
 21
29.60573621975853
 31
0.0
  0
LINE
  5
1A62
330
18
100
AcDbEntity
  8
MSL-90-S16-0
370
     0
100
AcDbLine
 10
-75.96769876432969
 20
-30.33176378025432
 30
0.0
 11
-101.4676987643297
 21
-30.33176378024523
 31
0.0
  0
LINE
  5
1A63
330
18
100
AcDbEntity
  8
MSL-90-S16-0
370
     0
100
AcDbLine
 10
-101.4676987643297
 20
-30.33176378024523
 30
0.0
 11
-101.4676987643296
 21
-30.14426378024523
 31
0.0
  0
LINE
  5
1A64
330
18
100
AcDbEntity
  8
MSL-90-S16-0
370
     0
100
AcDbLine
 10
-75.96769876432969
 20
-30.33176378025432
 30
0.0
 11
-75.96769876432793
 21
-25.39426378025444
 31
0.0
  0
LINE
  5
1A65
330
18
100
AcDbEntity
  8
MSL-90-S16-0
370
     0
100
AcDbLine
 10
-75.96769876429411
 20
69.54323621974579
 30
0.0
 11
-101.4676987642941
 21
69.54323621975489
 31
0.0
  0
LINE
  5
1A66
330
18
100
AcDbEntity
  8
MSL-90-S16-0
370
     0
100
AcDbLine
 10
-101.4676987642942
 20
69.35573621975489
 30
0.0
 11
-101.4676987642941
 21
69.54323621975489
 31
0.0
  0
LINE
  5
1A67
330
18
100
AcDbEntity
  8
MSL-90-S16-0
370
     0
100
AcDbLine
 10
-75.96769876429587
 20
64.60573621974557
 30
0.0
 11
-75.96769876429411
 21
69.54323621974579
 31
0.0
  0
LINE
  5
1A68
330
18
100
AcDbEntity
  8
MSL-90-S16-0
370
     0
100
AcDbLine
 10
-111.4676987642942
 20
69.35573621975841
 30
0.0
 11
-111.9676987642944
 21
68.85573621975852
 31
0.0
  0
LINE
  5
1A69
330
18
100
AcDbEntity
  8
MSL-90-S16-0
370
     0
100
AcDbLine
 10
-94.46769876432966
 20
-30.14426378024761
 30
0.0
 11
-111.4676987643296
 21
-30.1442637802417
 31
0.0
  0
LINE
  5
1A6A
330
18
100
AcDbEntity
  8
MSL-90-S16-0
370
     0
100
AcDbLine
 10
-93.9676987642944
 20
68.85573621975216
 30
0.0
 11
-94.46769876429423
 21
69.35573621975239
 31
0.0
  0
LINE
  5
1A6B
330
18
100
AcDbEntity
  8
MSL-90-S16-0
370
     0
100
AcDbLine
 10
-93.9676987642944
 20
68.85573621975216
 30
0.0
 11
-93.96769876429591
 21
64.60573621975216
 31
0.0
  0
LINE
  5
1A6C
330
18
100
AcDbEntity
  8
MSL-90-S16-0
370
     0
100
AcDbLine
 10
-93.96769876432797
 20
-25.39426378024796
 30
0.0
 11
-93.96769876432946
 21
-29.64426378024784
 31
0.0
  0
LINE
  5
1A6D
330
18
100
AcDbEntity
  8
MSL-90-S16-0
370
     0
100
AcDbLine
 10
-111.4676987642942
 20
69.35573621975841
 30
0.0
 11
-94.46769876429423
 21
69.35573621975239
 31
0.0
  0
LINE
  5
1A6E
330
18
100
AcDbEntity
  8
MSL-90-S16-0
370
     0
100
AcDbLine
 10
-94.46769876432966
 20
-30.14426378024761
 30
0.0
 11
-93.96769876432946
 21
-29.64426378024784
 31
0.0
  0
LINE
  5
1A6F
330
18
100
AcDbEntity
  8
MSL-90-S16-0
370
     0
100
AcDbLine
 10
-111.9676987643295
 20
-29.64426378024148
 30
0.0
 11
-111.9676987643269
 21
-22.39426378024159
 31
0.0
  0
LINE
  5
1A70
330
18
100
AcDbEntity
  8
MSL-90-S16-0
370
     0
100
AcDbLine
 10
-111.967698764297
 20
61.60573621975853
 30
0.0
 11
-111.9676987642944
 21
68.85573621975852
 31
0.0
  0
LINE
  5
1A71
330
18
100
AcDbEntity
  8
MSL-90-S16-0
370
     0
100
AcDbLine
 10
-111.9676987643295
 20
-29.64426378024148
 30
0.0
 11
-111.4676987643296
 21
-30.1442637802417
 31
0.0
  0
CIRCLE
  5
1A76
330
18
100
AcDbEntity
  8
MSL-90-S16-0
370
     0
100
AcDbCircle
 10
-65.46769876431236
 20
19.6057362197417
 30
0.0
 40
4.5
  0
CIRCLE
  5
1A77
330
18
100
AcDbEntity
  8
MSL-90-S16-0
370
     0
100
AcDbCircle
 10
-65.46769876431236
 20
19.6057362197417
 30
0.0
 40
5.0
  0
LINE
  5
1A78
330
18
100
AcDbEntity
  8
MSL-90-S16-0
370
     0
100
AcDbLine
 10
-108.9676987642959
 20
64.60573621975739
 30
0.0
 11
-27.96769876429593
 21
64.60573621972852
 31
0.0
  0
LINE
  5
1A79
330
18
100
AcDbEntity
  8
MSL-90-S16-0
370
     0
100
AcDbLine
 10
-27.96769876432814
 20
-25.3942637802716
 30
0.0
 11
-108.9676987643281
 21
-25.39426378024261
 31
0.0
  0
LINE
  5
1A7A
330
18
100
AcDbEntity
  8
MSL-90-S16-0
370
     0
100
AcDbLine
 10
-27.96769876429593
 20
64.60573621972852
 30
0.0
 11
-27.96769876432814
 21
-25.39426378027149
 31
0.0
  0
CIRCLE
  5
1A7B
330
18
100
AcDbEntity
  8
MSL-90-S16-0
370
     0
100
AcDbCircle
 10
-65.46769876431199
 20
19.60573621974193
 30
0.0
 40
13.0
  0
LINE
  5
1A7C
330
18
100
AcDbEntity
  8
MSL-90-S16-0
370
     0
100
AcDbLine
 10
-108.9676987642959
 20
64.60573621975739
 30
0.0
 11
-111.9676987642969
 21
61.60573621975853
 31
0.0
  0
CIRCLE
  5
1A7D
330
18
100
AcDbEntity
  8
MSL-90-S16-0
370
     0
100
AcDbCircle
 10
-34.96769876431898
 20
0.1557362197309686
 30
0.0
 40
5.0
  0
LINE
  5
1A7E
330
18
100
AcDbEntity
  8
MSL-90-S16-0
370
     0
100
AcDbLine
 10
-111.967698764327
 20
-22.39426378024147
 30
0.0
 11
-108.9676987643281
 21
-25.39426378024261
 31
0.0
  0
LINE
  5
1A7F
330
18
100
AcDbEntity
  8
MSL-90-S16-0
370
     0
100
AcDbLine
 10
-111.967698764327
 20
-22.39426378024147
 30
0.0
 11
-111.9676987642969
 21
61.60573621975853
 31
0.0
  0
CIRCLE
  5
1A80
330
18
100
AcDbEntity
  8
MSL-90-S16-0
370
     0
100
AcDbCircle
 10
-100.4676987642994
 20
54.6057362197533
 30
0.0
 40
3.399999999999999
  0
CIRCLE
  5
1A81
330
18
100
AcDbEntity
  8
MSL-90-S16-0
370
     0
100
AcDbCircle
 10
-42.46769876429951
 20
54.60573621973363
 30
0.0
 40
3.399999999999999
  0
CIRCLE
  5
1A82
330
18
100
AcDbEntity
  8
MSL-90-S16-0
370
     0
100
AcDbCircle
 10
-100.4676987643244
 20
-15.39426378024669
 30
0.0
 40
3.399999999999999
  0
CIRCLE
  5
1A83
330
18
100
AcDbEntity
  8
MSL-90-S16-0
370
     0
100
AcDbCircle
 10
-42.46769876432455
 20
-15.39426378026637
 30
0.0
 40
3.399999999999999
  0
CIRCLE
  5
1A84
330
18
100
AcDbEntity
  8
MSL-90-S16-0
370
     0
100
AcDbCircle
 10
-86.46769876430004
 20
53.04323621974943
 30
0.0
 40
5.0
  0
CIRCLE
  5
1A85
330
18
100
AcDbEntity
  8
MSL-90-S16-0
370
     0
100
AcDbCircle
 10
-86.46769876432392
 20
-13.83176378025057
 30
0.0
 40
5.0
  0
CIRCLE
  5
1A86
330
18
100
AcDbEntity
  8
MSL-90-S16-0
370
     0
100
AcDbCircle
 10
-34.96769876430505
 20
39.05573621973106
 30
0.0
 40
5.0
  0
ARC
  5
1A87
330
18
100
AcDbEntity
  8
MSL-90-S16-5
370
     0
100
AcDbCircle
 10
-100.4676987642994
 20
54.6057362197533
 30
0.0
 40
4.0
100
AcDbArc
 50
345.0000000000005
 51
285.0
  0
ARC
  5
1A88
330
18
100
AcDbEntity
  8
MSL-90-S16-5
370
     0
100
AcDbCircle
 10
-42.46769876429951
 20
54.60573621973363
 30
0.0
 40
4.0
100
AcDbArc
 50
344.9999999999996
 51
285.0000000000004
  0
ARC
  5
1A89
330
18
100
AcDbEntity
  8
MSL-90-S16-5
370
     0
100
AcDbCircle
 10
-100.4676987643244
 20
-15.39426378024669
 30
0.0
 40
4.0
100
AcDbArc
 50
345.0000000000004
 51
285.0
  0
ARC
  5
1A8A
330
18
100
AcDbEntity
  8
MSL-90-S16-5
370
     0
100
AcDbCircle
 10
-42.46769876432455
 20
-15.39426378026637
 30
0.0
 40
4.0
100
AcDbArc
 50
345.0000000000005
 51
285.0000000000004
  0
ARC
  5
1A8E
330
18
100
AcDbEntity
  8
MSL-90-S16-0
370
     0
100
AcDbCircle
 10
-65.46769876431236
 20
19.6057362197417
 30
0.0
 40
7.608
100
AcDbArc
 50
121.3011453746095
 51
58.69759951842975
  0
CIRCLE
  5
1A90
330
18
100
AcDbEntity
  8
MSL-90-S16-0
370
     0
100
AcDbCircle
 10
-65.46769876431236
 20
19.6057362197417
 30
0.0
 40
10.392
  0
CIRCLE
  5
1A91
330
18
100
AcDbEntity
  8
MSL-90-S16-0
370
     0
100
AcDbCircle
 10
-67.7176987643102
 20
25.60573621974261
 30
0.0
 40
0.75
  0
ARC
  5
1A93
330
18
100
AcDbEntity
  8
MSL-90-S16-0
370
     0
100
AcDbCircle
 10
-63.35783548306037
 20
25.32924696192852
 30
0.0
 40
2.00003004538435
100
AcDbArc
 50
19.94228716522083
 51
69.76443341567723
  0
ARC
  5
1A94
330
18
100
AcDbEntity
  8
MSL-90-S16-0
370
     0
100
AcDbCircle
 10
-65.46769423855923
 20
19.60578488788481
 30
0.0
 40
8.09994191715538
100
AcDbArc
 50
69.76443341567794
 51
84.687223802034
  0
ARC
  5
1A96
330
18
100
AcDbEntity
  8
MSL-90-S16-0
370
     0
100
AcDbCircle
 10
-67.57756204556025
 20
25.32924696192988
 30
0.0
 40
1.99993247673535
100
AcDbArc
 50
110.2354483583083
 51
160.0621161839345
  0
LINE
  5
1A97
330
18
100
AcDbEntity
  8
MSL-90-S16-0
370
     0
100
AcDbLine
 10
-70.4760839724187
 20
23.20401421625304
 30
0.0
 11
-69.45776854571878
 21
26.01127864538178
 31
0.0
  0
ARC
  5
1A98
330
18
100
AcDbEntity
  8
MSL-90-S16-0
370
     0
100
AcDbCircle
 10
-65.4676987643125
 20
19.1556629775542
 30
0.0
 40
6.43995886203106
100
AcDbArc
 50
141.0508825602821
 51
38.94284643477504
  0
LINE
  5
1A99
330
18
100
AcDbEntity
  8
MSL-90-S16-0
370
     0
100
AcDbLine
 10
-61.47768139329463
 20
26.01142314686497
 30
0.0
 11
-60.45887049544308
 21
23.20346602582943
 31
0.0
  0
ARC
  5
1A9A
330
18
100
AcDbEntity
  8
MSL-90-S16-0
370
     0
100
AcDbCircle
 10
-65.46769876431236
 20
19.6057362197417
 30
0.0
 40
8.099810179388008
100
AcDbArc
 50
95.31288437812165
 51
110.235448358308
  0
CIRCLE
  5
1A9B
330
18
100
AcDbEntity
  8
MSL-90-S16-0
370
     0
100
AcDbCircle
 10
-63.21769876431019
 20
25.60573621974102
 30
0.0
 40
0.75
  0
CIRCLE
  5
1A9C
330
18
100
AcDbEntity
  8
MSL-90-S16-0
370
     0
100
AcDbCircle
 10
-34.96769876431898
 20
0.1557362197309686
 30
0.0
 40
4.25
  0
LINE
  5
1A9D
330
18
100
AcDbEntity
  8
MSL-90-S16-0
370
     0
100
AcDbLine
 10
-36.12239930269894
 20
-1.844263780268576
 30
0.0
 11
-37.27709984107747
 21
0.1557362197317644
 31
0.0
  0
LINE
  5
1A9E
330
18
100
AcDbEntity
  8
MSL-90-S16-0
370
     0
100
AcDbLine
 10
-37.27709984107747
 20
0.1557362197318781
 30
0.0
 11
-36.12239930269752
 21
2.155736219731423
 31
0.0
  0
LINE
  5
1A9F
330
18
100
AcDbEntity
  8
MSL-90-S16-0
370
     0
100
AcDbLine
 10
-36.12239930269749
 20
2.155736219731423
 30
0.0
 11
-33.812998225939
 21
2.155736219730513
 31
0.0
  0
LINE
  5
1AA0
330
18
100
AcDbEntity
  8
MSL-90-S16-0
370
     0
100
AcDbLine
 10
-33.81299822594045
 20
-1.844263780269486
 30
0.0
 11
-36.12239930269894
 21
-1.844263780268576
 31
0.0
  0
LINE
  5
1AA1
330
18
100
AcDbEntity
  8
MSL-90-S16-0
370
     0
100
AcDbLine
 10
-33.812998225939
 20
2.155736219730513
 30
0.0
 11
-32.65829768756046
 21
0.1557362197301728
 31
0.0
  0
LINE
  5
1AA2
330
18
100
AcDbEntity
  8
MSL-90-S16-0
370
     0
100
AcDbLine
 10
-32.65829768756046
 20
0.1557362197301728
 30
0.0
 11
-33.81299822594042
 21
-1.844263780269486
 31
0.0
  0
LINE
  5
1AA3
330
18
100
AcDbEntity
  8
MSL-90-S16-0
370
     0
100
AcDbLine
 10
-33.8129982259251
 20
41.0557362197306
 30
0.0
 11
-32.65829768754656
 21
39.05573621973015
 31
0.0
  0
LINE
  5
1AA4
330
18
100
AcDbEntity
  8
MSL-90-S16-0
370
     0
100
AcDbLine
 10
-32.65829768754654
 20
39.05573621973015
 30
0.0
 11
-33.81299822592649
 21
37.05573621973061
 31
0.0
  0
CIRCLE
  5
1AA5
330
18
100
AcDbEntity
  8
MSL-90-S16-0
370
     0
100
AcDbCircle
 10
-34.96769876430505
 20
39.05573621973106
 30
0.0
 40
4.25
  0
LINE
  5
1AA6
330
18
100
AcDbEntity
  8
MSL-90-S16-0
370
     0
100
AcDbLine
 10
-36.12239930268501
 20
37.05573621973129
 30
0.0
 11
-37.27709984106355
 21
39.05573621973174
 31
0.0
  0
LINE
  5
1AA7
330
18
100
AcDbEntity
  8
MSL-90-S16-0
370
     0
100
AcDbLine
 10
-37.27709984106355
 20
39.05573621973174
 30
0.0
 11
-36.12239930268359
 21
41.05573621973128
 31
0.0
  0
LINE
  5
1AA8
330
18
100
AcDbEntity
  8
MSL-90-S16-0
370
     0
100
AcDbLine
 10
-36.12239930268359
 20
41.05573621973128
 30
0.0
 11
-33.8129982259251
 21
41.05573621973049
 31
0.0
  0
LINE
  5
1AA9
330
18
100
AcDbEntity
  8
MSL-90-S16-0
370
     0
100
AcDbLine
 10
-33.81299822592652
 20
37.05573621973061
 30
0.0
 11
-36.12239930268501
 21
37.0557362197314
 31
0.0
  0
LINE
  5
1AAB
330
18
100
AcDbEntity
  8
MSL-90-S16-0
370
     0
100
AcDbLine
 10
-88.46769876429954
 20
54.19793675812941
 30
0.0
 11
-86.46769876429914
 21
55.35263729650792
 31
0.0
  0
CIRCLE
  5
1AAC
330
18
100
AcDbEntity
  8
MSL-90-S16-0
370
     0
100
AcDbCircle
 10
-86.46769876429999
 20
53.04323621974932
 30
0.0
 40
4.25
  0
LINE
  5
1AAD
330
18
100
AcDbEntity
  8
MSL-90-S16-0
370
     0
100
AcDbLine
 10
-84.46769876429957
 20
54.19793675812782
 30
0.0
 11
-84.46769876430039
 21
51.88853568136945
 31
0.0
  0
LINE
  5
1AAE
330
18
100
AcDbEntity
  8
MSL-90-S16-0
370
     0
100
AcDbLine
 10
-86.46769876429914
 20
55.35263729650781
 30
0.0
 11
-84.46769876429957
 21
54.19793675812782
 31
0.0
  0
LINE
  5
1AAF
330
18
100
AcDbEntity
  8
MSL-90-S16-0
370
     0
100
AcDbLine
 10
-88.46769876430036
 20
51.88853568137081
 30
0.0
 11
-88.46769876429954
 21
54.1979367581293
 31
0.0
  0
LINE
  5
1AB0
330
18
100
AcDbEntity
  8
MSL-90-S16-0
370
     0
100
AcDbLine
 10
-86.46769876430079
 20
50.73383514299083
 30
0.0
 11
-88.46769876430036
 21
51.88853568137081
 31
0.0
  0
LINE
  5
1AB1
330
18
100
AcDbEntity
  8
MSL-90-S16-0
370
     0
100
AcDbLine
 10
-84.46769876430037
 20
51.88853568136945
 30
0.0
 11
-86.46769876430075
 21
50.73383514299083
 31
0.0
  0
LINE
  5
1AB2
330
18
100
AcDbEntity
  8
MSL-90-S16-0
370
     0
100
AcDbLine
 10
-84.4676987643243
 20
-14.98646431863055
 30
0.0
 11
-86.4676987643247
 21
-16.14116485700917
 31
0.0
  0
LINE
  5
1AB3
330
18
100
AcDbEntity
  8
MSL-90-S16-0
370
     0
100
AcDbLine
 10
-86.46769876432472
 20
-16.14116485700917
 30
0.0
 11
-88.4676987643243
 21
-14.98646431862919
 31
0.0
  0
LINE
  5
1AB5
330
18
100
AcDbEntity
  8
MSL-90-S16-0
370
     0
100
AcDbLine
 10
-88.46769876432347
 20
-12.67706324187058
 30
0.0
 11
-86.46769876432307
 21
-11.52236270349196
 31
0.0
  0
CIRCLE
  5
1AB6
330
18
100
AcDbEntity
  8
MSL-90-S16-0
370
     0
100
AcDbCircle
 10
-86.4676987643239
 20
-13.83176378025057
 30
0.0
 40
4.25
  0
LINE
  5
1AB7
330
18
100
AcDbEntity
  8
MSL-90-S16-0
370
     0
100
AcDbLine
 10
-84.46769876432346
 20
-12.67706324187206
 30
0.0
 11
-84.4676987643243
 21
-14.98646431863055
 31
0.0
  0
LINE
  5
1AB8
330
18
100
AcDbEntity
  8
MSL-90-S16-0
370
     0
100
AcDbLine
 10
-86.46769876432307
 20
-11.52236270349208
 30
0.0
 11
-84.4676987643235
 21
-12.67706324187206
 31
0.0
  0
LINE
  5
1AB9
330
18
100
AcDbEntity
  8
MSL-90-S16-0
370
     0
100
AcDbLine
 10
-88.4676987643243
 20
-14.98646431862919
 30
0.0
 11
-88.46769876432347
 21
-12.67706324187058
 31
0.0
  0
LINE
  5
1ABA
330
18
100
AcDbEntity
  8
MSL-90-S16-7A
100
AcDbLine
 10
-100.4676987643244
 20
-20.54426378024668
 30
0.0
 11
-100.4676987643244
 21
-10.24426378024672
 31
0.0
  0
LINE
  5
1ABB
330
18
100
AcDbEntity
  8
MSL-90-S16-7A
100
AcDbLine
 10
-105.6176987643244
 20
-15.3942637802467
 30
0.0
 11
-95.31769876432448
 21
-15.3942637802467
 31
0.0
  0
LINE
  5
1ABC
330
18
100
AcDbEntity
  8
MSL-90-S16-7A
100
AcDbLine
 10
-100.4676987642994
 20
49.45573621975332
 30
0.0
 11
-100.4676987642994
 21
59.75573621975327
 31
0.0
  0
LINE
  5
1ABD
330
18
100
AcDbEntity
  8
MSL-90-S16-7A
100
AcDbLine
 10
-105.6176987642994
 20
54.6057362197533
 30
0.0
 11
-95.31769876429947
 21
54.6057362197533
 31
0.0
  0
LINE
  5
1ABE
330
18
100
AcDbEntity
  8
MSL-90-S16-7A
100
AcDbLine
 10
-42.46769876429951
 20
49.45573621973365
 30
0.0
 11
-42.4676987642995
 21
59.7557362197336
 31
0.0
  0
LINE
  5
1ABF
330
18
100
AcDbEntity
  8
MSL-90-S16-7A
100
AcDbLine
 10
-47.61769876429948
 20
54.60573621973363
 30
0.0
 11
-37.31769876429954
 21
54.60573621973363
 31
0.0
  0
LINE
  5
1AC0
330
18
100
AcDbEntity
  8
MSL-90-S16-7A
100
AcDbLine
 10
-42.46769876432455
 20
-20.54426378026635
 30
0.0
 11
-42.46769876432455
 21
-10.24426378026639
 31
0.0
  0
LINE
  5
1AC1
330
18
100
AcDbEntity
  8
MSL-90-S16-7A
100
AcDbLine
 10
-47.61769876432452
 20
-15.39426378026637
 30
0.0
 11
-37.31769876432458
 21
-15.39426378026637
 31
0.0
  0
LINE
  5
1AC2
330
18
100
AcDbEntity
  8
MSL-90-S16-7A
100
AcDbLine
 10
-80.21769876431198
 20
19.60573621974193
 30
0.0
 11
-50.71769876431199
 21
19.60573621974193
 31
0.0
  0
LINE
  5
1AC3
330
18
100
AcDbEntity
  8
MSL-90-S16-7A
100
AcDbLine
 10
-65.46769876431199
 20
4.855736219741928
 30
0.0
 11
-65.46769876431199
 21
34.35573621974193
 31
0.0
  0
LINE
  5
1AC4
330
18
100
AcDbEntity
  8
MSL-90-S16-0
370
     0
100
AcDbLine
 10
330.0888566982739
 20
106.071632860637
 30
0.0
 11
332.7013566982359
 21
106.071632860637
 31
0.0
  0
LINE
  5
1AC5
330
18
100
AcDbEntity
  8
MSL-90-S16-0
370
     0
100
AcDbLine
 10
263.213856698198
 20
106.071632860637
 30
0.0
 11
260.213856698198
 21
106.071632860637
 31
0.0
  0
LINE
  5
1AC6
330
18
100
AcDbEntity
  8
MSL-90-S16-0
370
     0
100
AcDbLine
 10
248.713856698198
 20
106.071632860637
 30
0.0
 11
245.713856698198
 21
106.071632860637
 31
0.0
  0
LINE
  5
1AC7
330
18
100
AcDbEntity
  8
MSL-90-S16-0
370
     0
100
AcDbLine
 10
330.0888566982739
 20
106.071632860637
 30
0.0
 11
327.088856698274
 21
106.071632860637
 31
0.0
  0
LINE
  5
1AC8
330
18
100
AcDbEntity
  8
MSL-90-S16-0
370
     0
100
AcDbLine
 10
250.151356698236
 20
106.071632860637
 30
0.0
 11
248.713856698198
 21
106.071632860637
 31
0.0
  0
LINE
  5
1AC9
330
18
100
AcDbEntity
  8
MSL-90-S16-0
370
     0
100
AcDbLine
 10
317.351356698236
 20
106.5716328606357
 30
0.0
 11
317.351356698236
 21
106.271632860637
 31
0.0
  0
ARC
  5
1ACA
330
18
100
AcDbEntity
  8
MSL-90-S16-0
370
     0
100
AcDbCircle
 10
317.151356698236
 20
106.2716328606372
 30
0.0
 40
0.2
100
AcDbArc
 50
270.0
 51
0.0
  0
LINE
  5
1ACB
330
18
100
AcDbEntity
  8
MSL-90-S16-0
370
     0
100
AcDbLine
 10
330.0888566982739
 20
106.5716328606403
 30
0.0
 11
330.0888566982739
 21
106.071632860637
 31
0.0
  0
LINE
  5
1ACC
330
18
100
AcDbEntity
  8
MSL-90-S16-0
370
     0
100
AcDbLine
 10
260.213856698198
 20
106.071632860637
 30
0.0
 11
258.651356698236
 21
106.071632860637
 31
0.0
  0
LINE
  5
1ACD
330
18
100
AcDbEntity
  8
MSL-90-S16-0
370
     0
100
AcDbLine
 10
245.713856698198
 20
106.57163286061
 30
0.0
 11
245.713856698198
 21
106.071632860637
 31
0.0
  0
LINE
  5
1ACE
330
18
100
AcDbEntity
  8
MSL-90-S16-0
370
     0
100
AcDbLine
 10
263.213856698198
 20
106.5716328606164
 30
0.0
 11
263.213856698198
 21
106.0716328606371
 31
0.0
  0
LINE
  5
1ACF
330
18
100
AcDbEntity
  8
MSL-90-S16-0
370
     0
100
AcDbLine
 10
258.451356698236
 20
106.271632860637
 30
0.0
 11
258.451356698236
 21
106.5716328606147
 31
0.0
  0
ARC
  5
1AD0
330
18
100
AcDbEntity
  8
MSL-90-S16-0
370
     0
100
AcDbCircle
 10
258.651356698236
 20
106.2716328606371
 30
0.0
 40
0.2
100
AcDbArc
 50
180.0
 51
270.0
  0
ARC
  5
1AD1
330
18
100
AcDbEntity
  8
MSL-90-S16-0
370
     0
100
AcDbCircle
 10
250.151356698236
 20
106.2716328606371
 30
0.0
 40
0.2
100
AcDbArc
 50
270.0
 51
0.0
  0
LINE
  5
1AD2
330
18
100
AcDbEntity
  8
MSL-90-S16-0
370
     0
100
AcDbLine
 10
250.351356698236
 20
106.5716328606117
 30
0.0
 11
250.351356698236
 21
106.271632860637
 31
0.0
  0
LINE
  5
1AD3
330
18
100
AcDbEntity
  8
MSL-90-S16-0
370
     0
100
AcDbLine
 10
325.4513566982359
 20
106.2716328606371
 30
0.0
 11
325.4513566982359
 21
106.5716328606388
 31
0.0
  0
LINE
  5
1AD4
330
18
100
AcDbEntity
  8
MSL-90-S16-0
370
     0
100
AcDbLine
 10
317.151356698236
 20
106.071632860637
 30
0.0
 11
315.5888566982739
 21
106.071632860637
 31
0.0
  0
LINE
  5
1AD5
330
18
100
AcDbEntity
  8
MSL-90-S16-0
370
     0
100
AcDbLine
 10
327.088856698274
 20
106.071632860637
 30
0.0
 11
325.651356698236
 21
106.071632860637
 31
0.0
  0
LINE
  5
1AD6
330
18
100
AcDbEntity
  8
MSL-90-S16-0
370
     0
100
AcDbLine
 10
315.5888566982739
 20
106.071632860637
 30
0.0
 11
312.588856698274
 21
106.071632860637
 31
0.0
  0
ARC
  5
1AD7
330
18
100
AcDbEntity
  8
MSL-90-S16-0
370
     0
100
AcDbCircle
 10
325.651356698236
 20
106.2716328606372
 30
0.0
 40
0.2
100
AcDbArc
 50
180.0
 51
270.0
  0
LINE
  5
1AD8
330
18
100
AcDbEntity
  8
MSL-90-S16-0
370
     0
100
AcDbLine
 10
312.588856698274
 20
106.5716328606341
 30
0.0
 11
312.588856698274
 21
106.0716328606371
 31
0.0
  0
LINE
  5
1AD9
330
18
100
AcDbEntity
  8
MSL-90-S16-0
370
     0
100
AcDbLine
 10
263.213856698198
 20
106.071632860637
 30
0.0
 11
272.701356698236
 21
106.071632860637
 31
0.0
  0
ARC
  5
1ADA
330
18
100
AcDbEntity
  8
MSL-90-S16-0
370
     0
100
AcDbCircle
 10
272.701356698236
 20
106.2716328606372
 30
0.0
 40
0.2
100
AcDbArc
 50
270.0
 51
0.0
  0
LINE
  5
1ADB
330
18
100
AcDbEntity
  8
MSL-90-S16-0
370
     0
100
AcDbLine
 10
272.901356698236
 20
106.2716328606371
 30
0.0
 11
272.901356698236
 21
106.3716328606371
 31
0.0
  0
ARC
  5
1ADC
330
18
100
AcDbEntity
  8
MSL-90-S16-0
370
     0
100
AcDbCircle
 10
273.101356698236
 20
106.3716328606371
 30
0.0
 40
0.2
100
AcDbArc
 50
90.0
 51
180.0
  0
ARC
  5
1ADD
330
18
100
AcDbEntity
  8
MSL-90-S16-0
370
     0
100
AcDbCircle
 10
302.7013566982359
 20
106.3716328606371
 30
0.0
 40
0.2
100
AcDbArc
 50
0.0
 51
90.0
  0
LINE
  5
1ADE
330
18
100
AcDbEntity
  8
MSL-90-S16-0
370
     0
100
AcDbLine
 10
302.901356698236
 20
106.371632860637
 30
0.0
 11
302.901356698236
 21
106.271632860637
 31
0.0
  0
ARC
  5
1ADF
330
18
100
AcDbEntity
  8
MSL-90-S16-0
370
     0
100
AcDbCircle
 10
303.1013566982359
 20
106.2716328606372
 30
0.0
 40
0.2
100
AcDbArc
 50
180.0
 51
270.0
  0
LINE
  5
1AE0
330
18
100
AcDbEntity
  8
MSL-90-S16-0
370
     0
100
AcDbLine
 10
303.101356698236
 20
106.071632860637
 30
0.0
 11
312.588856698274
 21
106.071632860637
 31
0.0
  0
ARC
  5
1AE1
330
18
100
AcDbEntity
  8
MSL-90-S16-0
370
     0
100
AcDbCircle
 10
332.7013566982359
 20
106.2716328606372
 30
0.0
 40
0.2
100
AcDbArc
 50
270.0
 51
0.0
  0
LINE
  5
1AE2
330
18
100
AcDbEntity
  8
MSL-90-S16-0
370
     0
100
AcDbLine
 10
332.901356698236
 20
106.2716328606371
 30
0.0
 11
332.901356698236
 21
106.5716328606414
 31
0.0
  0
ARC
  5
1AE3
330
18
100
AcDbEntity
  8
MSL-90-S16-0
370
     0
100
AcDbCircle
 10
243.101356698236
 20
106.2716328606372
 30
0.0
 40
0.2
100
AcDbArc
 50
180.0
 51
270.0
  0
LINE
  5
1AE4
330
18
100
AcDbEntity
  8
MSL-90-S16-0
370
     0
100
AcDbLine
 10
243.101356698236
 20
106.071632860637
 30
0.0
 11
245.713856698198
 21
106.071632860637
 31
0.0
  0
LINE
  5
1AE5
330
18
100
AcDbEntity
  8
MSL-90-S16-0
370
     0
100
AcDbLine
 10
242.901356698236
 20
106.5716328606091
 30
0.0
 11
242.901356698236
 21
106.271632860637
 31
0.0
  0
LINE
  5
1AE6
330
18
100
AcDbEntity
  8
MSL-90-S16-0
370
     0
100
AcDbLine
 10
337.9013566981868
 20
190.571632860643
 30
0.0
 11
337.9013566981905
 21
180.071632860643
 31
0.0
  0
LINE
  5
1AE7
330
18
100
AcDbEntity
  8
MSL-90-S16-0
370
     0
100
AcDbLine
 10
237.9013566981868
 20
190.5716328606074
 30
0.0
 11
237.9013566981905
 21
180.0716328606074
 31
0.0
  0
LINE
  5
1AE8
330
18
100
AcDbEntity
  8
MSL-90-S16-0
370
     0
100
AcDbLine
 10
337.9013566981905
 20
180.071632860643
 30
0.0
 11
337.6513566981904
 21
180.0716328606429
 31
0.0
  0
LINE
  5
1AE9
330
18
100
AcDbEntity
  8
MSL-90-S16-0
370
     0
100
AcDbLine
 10
277.9013566981866
 20
191.0716328606216
 30
0.0
 11
238.4013566981867
 21
191.0716328606076
 31
0.0
  0
LINE
  5
1AEA
330
18
100
AcDbEntity
  8
MSL-90-S16-0
370
     0
100
AcDbLine
 10
337.4013566981866
 20
191.0716328606429
 30
0.0
 11
297.9013566981866
 21
191.0716328606288
 31
0.0
  0
LINE
  5
1AEB
330
18
100
AcDbEntity
  8
MSL-90-S16-0
370
     0
100
AcDbLine
 10
238.1513566981903
 20
180.0716328606074
 30
0.0
 11
237.9013566981905
 21
180.0716328606073
 31
0.0
  0
LINE
  5
1AEC
330
18
100
AcDbEntity
  8
MSL-90-S16-0
370
     0
100
AcDbLine
 10
238.4013566981867
 20
191.0716328606076
 30
0.0
 11
237.9013566981868
 21
190.5716328606073
 31
0.0
  0
LINE
  5
1AED
330
18
100
AcDbEntity
  8
MSL-90-S16-0
370
     0
100
AcDbLine
 10
337.9013566981868
 20
190.571632860643
 30
0.0
 11
337.4013566981866
 21
191.0716328606429
 31
0.0
  0
LINE
  5
1AEE
330
18
100
AcDbEntity
  8
MSL-90-S16-0
370
     0
100
AcDbLine
 10
277.9013566981868
 20
190.5716328606216
 30
0.0
 11
277.9013566981866
 21
191.0716328606216
 31
0.0
  0
LINE
  5
1AEF
330
18
100
AcDbEntity
  8
MSL-90-S16-0
370
     0
100
AcDbLine
 10
297.9013566981866
 20
191.0716328606288
 30
0.0
 11
297.9013566981868
 21
190.5716328606288
 31
0.0
  0
LINE
  5
1AF0
330
18
100
AcDbEntity
  8
MSL-90-S16-0
370
     0
100
AcDbLine
 10
337.8388566981996
 20
154.571632860643
 30
0.0
 11
337.8388566981905
 21
180.071632860643
 31
0.0
  0
LINE
  5
1AF1
330
18
100
AcDbEntity
  8
MSL-90-S16-0
370
     0
100
AcDbLine
 10
337.6513566981904
 20
180.0716328606429
 30
0.0
 11
337.8388566981905
 21
180.071632860643
 31
0.0
  0
LINE
  5
1AF2
330
18
100
AcDbEntity
  8
MSL-90-S16-0
370
     0
100
AcDbLine
 10
332.9013566981996
 20
154.5716328606413
 30
0.0
 11
337.8388566981996
 21
154.571632860643
 31
0.0
  0
LINE
  5
1AF3
330
18
100
AcDbEntity
  8
MSL-90-S16-0
370
     0
100
AcDbLine
 10
237.9638566981996
 20
154.5716328606073
 30
0.0
 11
237.9638566981905
 21
180.0716328606073
 31
0.0
  0
LINE
  5
1AF4
330
18
100
AcDbEntity
  8
MSL-90-S16-0
370
     0
100
AcDbLine
 10
237.9638566981905
 20
180.0716328606074
 30
0.0
 11
238.1513566981903
 21
180.0716328606075
 31
0.0
  0
LINE
  5
1AF5
330
18
100
AcDbEntity
  8
MSL-90-S16-0
370
     0
100
AcDbLine
 10
237.9638566981996
 20
154.5716328606073
 30
0.0
 11
242.9013566981995
 21
154.571632860609
 31
0.0
  0
LINE
  5
1AF6
330
18
100
AcDbEntity
  8
MSL-90-S16-0
370
     0
100
AcDbLine
 10
337.1513566981926
 20
174.5716328606427
 30
0.0
 11
337.6513566981923
 21
175.0716328606429
 31
0.0
  0
LINE
  5
1AF7
330
18
100
AcDbEntity
  8
MSL-90-S16-0
370
     0
100
AcDbLine
 10
337.651356698187
 20
190.0716328606429
 30
0.0
 11
337.1513566981868
 21
190.5716328606428
 31
0.0
  0
LINE
  5
1AF8
330
18
100
AcDbEntity
  8
MSL-90-S16-0
370
     0
100
AcDbLine
 10
238.6513566981868
 20
190.5716328606077
 30
0.0
 11
238.1513566981869
 21
190.0716328606074
 31
0.0
  0
LINE
  5
1AF9
330
18
100
AcDbEntity
  8
MSL-90-S16-0
370
     0
100
AcDbLine
 10
238.1513566981923
 20
175.0716328606074
 30
0.0
 11
238.6513566981924
 21
174.5716328606077
 31
0.0
  0
LINE
  5
1AFA
330
18
100
AcDbEntity
  8
MSL-90-S16-0
370
     0
100
AcDbLine
 10
238.1513566981923
 20
175.0716328606074
 30
0.0
 11
238.1513566981869
 21
190.0716328606074
 31
0.0
  0
LINE
  5
1AFB
330
18
100
AcDbEntity
  8
MSL-90-S16-0
370
     0
100
AcDbLine
 10
332.9013566981924
 20
174.5716328606412
 30
0.0
 11
337.1513566981926
 21
174.5716328606428
 31
0.0
  0
LINE
  5
1AFC
330
18
100
AcDbEntity
  8
MSL-90-S16-0
370
     0
100
AcDbLine
 10
238.6513566981924
 20
174.5716328606077
 30
0.0
 11
242.9013566981924
 21
174.5716328606091
 31
0.0
  0
LINE
  5
1AFD
330
18
100
AcDbEntity
  8
MSL-90-S16-0
370
     0
100
AcDbLine
 10
337.651356698187
 20
190.0716328606429
 30
0.0
 11
337.6513566981923
 21
175.0716328606429
 31
0.0
  0
LINE
  5
1AFE
330
18
100
AcDbEntity
  8
MSL-90-S16-0
370
     0
100
AcDbLine
 10
238.6513566981868
 20
190.5716328606077
 30
0.0
 11
245.9013566981868
 21
190.5716328606103
 31
0.0
  0
LINE
  5
1AFF
330
18
100
AcDbEntity
  8
MSL-90-S16-0
370
     0
100
AcDbLine
 10
329.9013566981868
 20
190.5716328606402
 30
0.0
 11
337.1513566981869
 21
190.5716328606428
 31
0.0
  0
CIRCLE
  5
1B00
330
18
100
AcDbEntity
  8
MSL-90-S16-0
370
     0
100
AcDbCircle
 10
307.3513566982141
 20
113.5716328606322
 30
0.0
 40
5.0
  0
CIRCLE
  5
1B01
330
18
100
AcDbEntity
  8
MSL-90-S16-0
370
     0
100
AcDbCircle
 10
309.1145601338072
 20
122.8584294250363
 30
0.0
 40
2.1
  0
CIRCLE
  5
1B02
330
18
100
AcDbEntity
  8
MSL-90-S16-0
370
     0
100
AcDbCircle
 10
309.1145601337921
 20
165.2848362962293
 30
0.0
 40
2.1
  0
CIRCLE
  5
1B03
330
18
100
AcDbEntity
  8
MSL-90-S16-0
370
     0
100
AcDbCircle
 10
266.6881532625993
 20
165.2848362962141
 30
0.0
 40
2.1
  0
CIRCLE
  5
1B04
330
18
100
AcDbEntity
  8
MSL-90-S16-0
370
     0
100
AcDbCircle
 10
266.6881532626144
 20
122.8584294250212
 30
0.0
 40
2.1
  0
LINE
  5
1B05
330
18
100
AcDbEntity
  8
MSL-90-S16-0
370
     0
100
AcDbLine
 10
332.9013566982167
 20
106.5716328606412
 30
0.0
 11
242.9013566982167
 21
106.5716328606092
 31
0.0
  0
CIRCLE
  5
1B06
330
18
100
AcDbEntity
  8
MSL-90-S16-0
370
     0
100
AcDbCircle
 10
268.4513566982141
 20
113.5716328606183
 30
0.0
 40
5.0
  0
CIRCLE
  5
1B07
330
18
100
AcDbEntity
  8
MSL-90-S16-0
370
     0
100
AcDbCircle
 10
287.9013566982033
 20
144.0716328606253
 30
0.0
 40
15.188
  0
CIRCLE
  5
1B08
330
18
100
AcDbEntity
  8
MSL-90-S16-0
370
     0
100
AcDbCircle
 10
254.4638566981957
 20
165.0716328606133
 30
0.0
 40
5.0
  0
CIRCLE
  5
1B09
330
18
100
AcDbEntity
  8
MSL-90-S16-0
370
     0
100
AcDbCircle
 10
287.9013566982033
 20
144.0716328606253
 30
0.0
 40
21.0
  0
LINE
  5
1B0A
330
18
100
AcDbEntity
  8
MSL-90-S16-0
370
     0
100
AcDbLine
 10
245.9013566981868
 20
190.5716328606103
 30
0.0
 11
329.9013566981868
 21
190.57163286064
 31
0.0
  0
LINE
  5
1B0B
330
18
100
AcDbEntity
  8
MSL-90-S16-0
370
     0
100
AcDbLine
 10
245.9013566981868
 20
190.5716328606103
 30
0.0
 11
242.9013566981878
 21
187.5716328606092
 31
0.0
  0
LINE
  5
1B0C
330
18
100
AcDbEntity
  8
MSL-90-S16-0
370
     0
100
AcDbLine
 10
242.9013566982165
 20
106.5716328606091
 30
0.0
 11
242.9013566981878
 21
187.5716328606091
 31
0.0
  0
LINE
  5
1B0D
330
18
100
AcDbEntity
  8
MSL-90-S16-0
370
     0
100
AcDbLine
 10
332.9013566981878
 20
187.5716328606412
 30
0.0
 11
332.9013566982167
 21
106.5716328606412
 31
0.0
  0
LINE
  5
1B0E
330
18
100
AcDbEntity
  8
MSL-90-S16-0
370
     0
100
AcDbLine
 10
332.9013566981878
 20
187.5716328606412
 30
0.0
 11
329.9013566981868
 21
190.5716328606402
 31
0.0
  0
CIRCLE
  5
1B0F
330
18
100
AcDbEntity
  8
MSL-90-S16-0
370
     0
100
AcDbCircle
 10
321.3388566981957
 20
165.0716328606372
 30
0.0
 40
5.0
  0
ARC
  5
1B10
330
18
100
AcDbEntity
  8
MSL-90-S16-5
370
     0
100
AcDbCircle
 10
266.6881532626144
 20
122.8584294250212
 30
0.0
 40
2.5
100
AcDbArc
 50
345.0000000000027
 51
285.0000000000008
  0
ARC
  5
1B11
330
18
100
AcDbEntity
  8
MSL-90-S16-5
370
     0
100
AcDbCircle
 10
309.1145601338072
 20
122.8584294250363
 30
0.0
 40
2.5
100
AcDbArc
 50
345.0000000000027
 51
285.0000000000011
  0
ARC
  5
1B12
330
18
100
AcDbEntity
  8
MSL-90-S16-5
370
     0
100
AcDbCircle
 10
309.1145601337921
 20
165.2848362962293
 30
0.0
 40
2.5
100
AcDbArc
 50
344.9999999999975
 51
284.9999999999995
  0
ARC
  5
1B13
330
18
100
AcDbEntity
  8
MSL-90-S16-5
370
     0
100
AcDbCircle
 10
266.6881532625993
 20
165.2848362962141
 30
0.0
 40
2.5
100
AcDbArc
 50
344.9999999999975
 51
284.9999999999995
  0
CIRCLE
  5
1B15
330
18
100
AcDbEntity
  8
MSL-90-S16-0
370
     0
100
AcDbCircle
 10
287.9013566982033
 20
144.0716328606252
 30
0.0
 40
3.999999999999987
  0
CIRCLE
  5
1B16
330
18
100
AcDbEntity
  8
MSL-90-S16-0
370
     0
100
AcDbCircle
 10
287.9013566982033
 20
144.0716328606253
 30
0.0
 40
5.0
  0
CIRCLE
  5
1B17
330
18
100
AcDbEntity
  8
MSL-90-S16-0
370
     0
100
AcDbCircle
 10
287.9013566982033
 20
144.0716328606253
 30
0.0
 40
4.7
  0
CIRCLE
  5
1B18
330
18
100
AcDbEntity
  8
MSL-90-S16-0
370
     0
100
AcDbCircle
 10
287.9013566982033
 20
144.0716328606252
 30
0.0
 40
4.499999999999988
  0
ARC
  5
1B19
330
18
100
AcDbEntity
  8
MSL-90-S16-5
370
     0
100
AcDbCircle
 10
287.9013566982033
 20
144.0716328606253
 30
0.0
 40
4.594
100
AcDbArc
 50
344.9999999999999
 51
284.9999999999996
  0
CIRCLE
  5
1B1A
330
18
100
AcDbEntity
  8
MSL-90-S16-0
370
     0
100
AcDbCircle
 10
287.9013566981988
 20
156.5716328606253
 30
0.0
 40
1.6
  0
CIRCLE
  5
1B1B
330
18
100
AcDbEntity
  8
MSL-90-S16-0
370
     0
100
AcDbCircle
 10
287.9013566982077
 20
131.5716328606252
 30
0.0
 40
1.6
  0
CIRCLE
  5
1B1C
330
18
100
AcDbEntity
  8
MSL-90-S16-0
370
     0
100
AcDbCircle
 10
287.9013566982033
 20
144.0716328606253
 30
0.0
 40
9.5
  0
LINE
  5
1B1D
330
18
100
AcDbEntity
  8
MSL-90-S16-0
370
     0
100
AcDbLine
 10
279.0272370235543
 20
142.571632860622
 30
0.0
 11
279.3316425839523
 21
142.5716328606221
 31
0.0
  0
LINE
  5
1B1E
330
18
100
AcDbEntity
  8
MSL-90-S16-0
370
     0
100
AcDbLine
 10
289.4013566982064
 20
135.1975131859763
 30
0.0
 11
289.4013566982063
 21
135.5019187463742
 31
0.0
  0
ARC
  5
1B1F
330
18
100
AcDbEntity
  8
MSL-90-S16-0
370
     0
100
AcDbCircle
 10
287.9013566982033
 20
144.0716328606253
 30
0.0
 40
9.000000000000001
100
AcDbArc
 50
279.594068226881
 51
350.4059317731601
  0
LINE
  5
1B20
330
18
100
AcDbEntity
  8
MSL-90-S16-0
370
     0
100
AcDbLine
 10
296.4710708124552
 20
142.5716328606282
 30
0.0
 11
296.7754763728532
 21
142.5716328606283
 31
0.0
  0
ARC
  5
1B21
330
18
100
AcDbEntity
  8
MSL-90-S16-0
370
     0
100
AcDbCircle
 10
287.9013566982033
 20
144.0716328606253
 30
0.0
 40
9.000000000000001
100
AcDbArc
 50
189.594068226881
 51
260.40593177316
  0
LINE
  5
1B22
330
18
100
AcDbEntity
  8
MSL-90-S16-0
370
     0
100
AcDbLine
 10
296.7754763728521
 20
145.5716328606284
 30
0.0
 11
296.4710708124542
 21
145.5716328606282
 31
0.0
  0
ARC
  5
1B23
330
18
100
AcDbEntity
  8
MSL-90-S16-0
370
     0
100
AcDbCircle
 10
287.9013566982033
 20
144.0716328606253
 30
0.0
 40
9.000000000000001
100
AcDbArc
 50
9.594068226880967
 51
80.40593177315988
  0
LINE
  5
1B24
330
18
100
AcDbEntity
  8
MSL-90-S16-0
370
     0
100
AcDbLine
 10
289.4013566982002
 20
152.6413469748771
 30
0.0
 11
289.4013566982001
 21
152.9457525352751
 31
0.0
  0
ARC
  5
1B25
330
18
100
AcDbEntity
  8
MSL-90-S16-0
370
     0
100
AcDbCircle
 10
287.9013566982033
 20
144.0716328606253
 30
0.0
 40
8.700000000000001
100
AcDbArc
 50
189.928191842307
 51
260.071808157734
  0
LINE
  5
1B26
330
18
100
AcDbEntity
  8
MSL-90-S16-0
370
     0
100
AcDbLine
 10
286.4013566982063
 20
135.5019187463732
 30
0.0
 11
286.4013566982058
 21
137.0716328606246
 31
0.0
  0
LINE
  5
1B27
330
18
100
AcDbEntity
  8
MSL-90-S16-0
370
     0
100
AcDbLine
 10
286.4013566982058
 20
137.0716328606246
 30
0.0
 11
289.4013566982057
 21
137.0716328606256
 31
0.0
  0
LINE
  5
1B28
330
18
100
AcDbEntity
  8
MSL-90-S16-0
370
     0
100
AcDbLine
 10
289.4013566982057
 20
137.0716328606257
 30
0.0
 11
289.4013566982063
 21
135.5019187463744
 31
0.0
  0
LINE
  5
1B29
330
18
100
AcDbEntity
  8
MSL-90-S16-0
370
     0
100
AcDbLine
 10
279.3316425839513
 20
145.5716328606221
 30
0.0
 11
280.9013566982027
 21
145.5716328606227
 31
0.0
  0
LINE
  5
1B2A
330
18
100
AcDbEntity
  8
MSL-90-S16-0
370
     0
100
AcDbLine
 10
280.9013566982027
 20
145.5716328606227
 30
0.0
 11
280.9013566982038
 21
142.5716328606227
 31
0.0
  0
LINE
  5
1B2B
330
18
100
AcDbEntity
  8
MSL-90-S16-0
370
     0
100
AcDbLine
 10
280.9013566982038
 20
142.5716328606227
 30
0.0
 11
279.3316425839523
 21
142.5716328606221
 31
0.0
  0
LINE
  5
1B2C
330
18
100
AcDbEntity
  8
MSL-90-S16-0
370
     0
100
AcDbLine
 10
289.4013566982002
 20
152.6413469748771
 30
0.0
 11
289.4013566982007
 21
151.0716328606257
 31
0.0
  0
LINE
  5
1B2D
330
18
100
AcDbEntity
  8
MSL-90-S16-0
370
     0
100
AcDbLine
 10
286.4013566982007
 20
151.0716328606246
 30
0.0
 11
286.4013566982002
 21
152.641346974876
 31
0.0
  0
LINE
  5
1B2E
330
18
100
AcDbEntity
  8
MSL-90-S16-0
370
     0
100
AcDbLine
 10
289.4013566982007
 20
151.0716328606257
 30
0.0
 11
286.4013566982007
 21
151.0716328606247
 31
0.0
  0
LINE
  5
1B2F
330
18
100
AcDbEntity
  8
MSL-90-S16-0
370
     0
100
AcDbLine
 10
296.4710708124552
 20
142.5716328606282
 30
0.0
 11
294.9013566982038
 21
142.5716328606277
 31
0.0
  0
LINE
  5
1B30
330
18
100
AcDbEntity
  8
MSL-90-S16-0
370
     0
100
AcDbLine
 10
294.9013566982038
 20
142.5716328606277
 30
0.0
 11
294.9013566982027
 21
145.5716328606277
 31
0.0
  0
LINE
  5
1B31
330
18
100
AcDbEntity
  8
MSL-90-S16-0
370
     0
100
AcDbLine
 10
294.9013566982028
 20
145.5716328606277
 30
0.0
 11
296.4710708124542
 21
145.5716328606282
 31
0.0
  0
ARC
  5
1B32
330
18
100
AcDbEntity
  8
MSL-90-S16-0
370
     0
100
AcDbCircle
 10
287.9013566982033
 20
144.0716328606253
 30
0.0
 40
8.700000000000001
100
AcDbArc
 50
9.928191842306972
 51
80.07180815773395
  0
ARC
  5
1B33
330
18
100
AcDbEntity
  8
MSL-90-S16-0
370
     0
100
AcDbCircle
 10
287.9013566982033
 20
144.0716328606253
 30
0.0
 40
9.000000000000001
100
AcDbArc
 50
99.5940682268808
 51
170.4059317731601
  0
LINE
  5
1B34
330
18
100
AcDbEntity
  8
MSL-90-S16-0
370
     0
100
AcDbLine
 10
279.3316425839513
 20
145.5716328606221
 30
0.0
 11
279.0272370235533
 21
145.571632860622
 31
0.0
  0
ARC
  5
1B35
330
18
100
AcDbEntity
  8
MSL-90-S16-0
370
     0
100
AcDbCircle
 10
287.9013566982033
 20
144.0716328606253
 30
0.0
 40
8.700000000000001
100
AcDbArc
 50
99.92819184230677
 51
170.071808157734
  0
ARC
  5
1B36
330
18
100
AcDbEntity
  8
MSL-90-S16-0
370
     0
100
AcDbCircle
 10
287.9013566982033
 20
144.0716328606253
 30
0.0
 40
8.700000000000001
100
AcDbArc
 50
279.9281918423069
 51
350.071808157734
  0
LINE
  5
1B37
330
18
100
AcDbEntity
  8
MSL-90-S16-0
370
     0
100
AcDbLine
 10
286.4013566982063
 20
135.5019187463732
 30
0.0
 11
286.4013566982064
 21
135.1975131859752
 31
0.0
  0
LINE
  5
1B38
330
18
100
AcDbEntity
  8
MSL-90-S16-0
370
     0
100
AcDbLine
 10
286.4013566982001
 20
152.9457525352741
 30
0.0
 11
286.4013566982002
 21
152.6413469748761
 31
0.0
  0
LINE
  5
1B39
330
18
100
AcDbEntity
  8
MSL-90-S16-0
370
     0
100
AcDbLine
 10
255.6185572365744
 20
167.0716328606137
 30
0.0
 11
256.7732577749544
 21
165.0716328606141
 31
0.0
  0
LINE
  5
1B3A
330
18
100
AcDbEntity
  8
MSL-90-S16-0
370
     0
100
AcDbLine
 10
256.7732577749544
 20
165.0716328606141
 30
0.0
 11
255.6185572365757
 21
163.0716328606137
 31
0.0
  0
CIRCLE
  5
1B3B
330
18
100
AcDbEntity
  8
MSL-90-S16-0
370
     0
100
AcDbCircle
 10
254.4638566981957
 20
165.0716328606133
 30
0.0
 40
4.25
  0
LINE
  5
1B3C
330
18
100
AcDbEntity
  8
MSL-90-S16-0
370
     0
100
AcDbLine
 10
253.3091561598173
 20
163.0716328606129
 30
0.0
 11
252.1544556214374
 21
165.0716328606124
 31
0.0
  0
LINE
  5
1B3D
330
18
100
AcDbEntity
  8
MSL-90-S16-0
370
     0
100
AcDbLine
 10
252.1544556214374
 20
165.0716328606124
 30
0.0
 11
253.3091561598159
 21
167.0716328606129
 31
0.0
  0
LINE
  5
1B3E
330
18
100
AcDbEntity
  8
MSL-90-S16-0
370
     0
100
AcDbLine
 10
253.3091561598159
 20
167.0716328606129
 30
0.0
 11
255.6185572365744
 21
167.0716328606137
 31
0.0
  0
LINE
  5
1B3F
330
18
100
AcDbEntity
  8
MSL-90-S16-0
370
     0
100
AcDbLine
 10
255.6185572365757
 20
163.0716328606137
 30
0.0
 11
253.3091561598173
 21
163.0716328606129
 31
0.0
  0
CIRCLE
  5
1B40
330
18
100
AcDbEntity
  8
MSL-90-S16-0
370
     0
100
AcDbCircle
 10
321.3388566981957
 20
165.0716328606372
 30
0.0
 40
4.25
  0
LINE
  5
1B41
330
18
100
AcDbEntity
  8
MSL-90-S16-0
370
     0
100
AcDbLine
 10
320.1841561598172
 20
163.0716328606366
 30
0.0
 11
319.0294556214374
 21
165.0716328606362
 31
0.0
  0
LINE
  5
1B42
330
18
100
AcDbEntity
  8
MSL-90-S16-0
370
     0
100
AcDbLine
 10
319.0294556214374
 20
165.0716328606362
 30
0.0
 11
320.1841561598159
 21
167.0716328606366
 31
0.0
  0
LINE
  5
1B43
330
18
100
AcDbEntity
  8
MSL-90-S16-0
370
     0
100
AcDbLine
 10
320.1841561598159
 20
167.0716328606366
 30
0.0
 11
322.4935572365744
 21
167.0716328606374
 31
0.0
  0
LINE
  5
1B44
330
18
100
AcDbEntity
  8
MSL-90-S16-0
370
     0
100
AcDbLine
 10
322.4935572365757
 20
163.0716328606374
 30
0.0
 11
320.1841561598172
 21
163.0716328606366
 31
0.0
  0
LINE
  5
1B45
330
18
100
AcDbEntity
  8
MSL-90-S16-0
370
     0
100
AcDbLine
 10
323.6482577749543
 20
165.0716328606379
 30
0.0
 11
322.4935572365757
 21
163.0716328606374
 31
0.0
  0
LINE
  5
1B46
330
18
100
AcDbEntity
  8
MSL-90-S16-0
370
     0
100
AcDbLine
 10
322.4935572365744
 20
167.0716328606374
 30
0.0
 11
323.6482577749543
 21
165.0716328606379
 31
0.0
  0
LINE
  5
1B47
330
18
100
AcDbEntity
  8
MSL-90-S16-0
370
     0
100
AcDbLine
 10
269.6060572365926
 20
115.5716328606187
 30
0.0
 11
270.7607577749726
 21
113.5716328606191
 31
0.0
  0
LINE
  5
1B48
330
18
100
AcDbEntity
  8
MSL-90-S16-0
370
     0
100
AcDbLine
 10
270.7607577749726
 20
113.5716328606191
 30
0.0
 11
269.6060572365941
 21
111.5716328606187
 31
0.0
  0
CIRCLE
  5
1B49
330
18
100
AcDbEntity
  8
MSL-90-S16-0
370
     0
100
AcDbCircle
 10
268.4513566982141
 20
113.5716328606183
 30
0.0
 40
4.25
  0
LINE
  5
1B4A
330
18
100
AcDbEntity
  8
MSL-90-S16-0
370
     0
100
AcDbLine
 10
267.2966561598355
 20
111.5716328606179
 30
0.0
 11
266.1419556214556
 21
113.5716328606174
 31
0.0
  0
LINE
  5
1B4B
330
18
100
AcDbEntity
  8
MSL-90-S16-0
370
     0
100
AcDbLine
 10
266.1419556214556
 20
113.5716328606174
 30
0.0
 11
267.2966561598341
 21
115.5716328606179
 31
0.0
  0
LINE
  5
1B4C
330
18
100
AcDbEntity
  8
MSL-90-S16-0
370
     0
100
AcDbLine
 10
267.2966561598341
 20
115.5716328606179
 30
0.0
 11
269.6060572365926
 21
115.5716328606187
 31
0.0
  0
LINE
  5
1B4D
330
18
100
AcDbEntity
  8
MSL-90-S16-0
370
     0
100
AcDbLine
 10
269.6060572365941
 20
111.5716328606187
 30
0.0
 11
267.2966561598356
 21
111.5716328606179
 31
0.0
  0
CIRCLE
  5
1B4E
330
18
100
AcDbEntity
  8
MSL-90-S16-0
370
     0
100
AcDbCircle
 10
307.3513566982141
 20
113.5716328606322
 30
0.0
 40
4.25
  0
LINE
  5
1B4F
330
18
100
AcDbEntity
  8
MSL-90-S16-0
370
     0
100
AcDbLine
 10
306.1966561598356
 20
111.5716328606316
 30
0.0
 11
305.0419556214556
 21
113.5716328606312
 31
0.0
  0
LINE
  5
1B50
330
18
100
AcDbEntity
  8
MSL-90-S16-0
370
     0
100
AcDbLine
 10
306.1966561598341
 20
115.5716328606316
 30
0.0
 11
308.5060572365926
 21
115.5716328606324
 31
0.0
  0
LINE
  5
1B51
330
18
100
AcDbEntity
  8
MSL-90-S16-0
370
     0
100
AcDbLine
 10
305.0419556214556
 20
113.5716328606312
 30
0.0
 11
306.1966561598341
 21
115.5716328606316
 31
0.0
  0
LINE
  5
1B52
330
18
100
AcDbEntity
  8
MSL-90-S16-0
370
     0
100
AcDbLine
 10
308.5060572365941
 20
111.5716328606325
 30
0.0
 11
306.1966561598356
 21
111.5716328606317
 31
0.0
  0
LINE
  5
1B53
330
18
100
AcDbEntity
  8
MSL-90-S16-0
370
     0
100
AcDbLine
 10
308.5060572365926
 20
115.5716328606325
 30
0.0
 11
309.6607577749726
 21
113.571632860633
 31
0.0
  0
LINE
  5
1B54
330
18
100
AcDbEntity
  8
MSL-90-S16-0
370
     0
100
AcDbLine
 10
309.6607577749726
 20
113.5716328606329
 30
0.0
 11
308.5060572365941
 21
111.5716328606324
 31
0.0
  0
ARC
  5
1B5E
330
18
100
AcDbEntity
  8
MSL-90-S16-0
370
     0
100
AcDbCircle
 10
287.9013566982033
 20
144.0716328606252
 30
0.0
 40
9.0
100
AcDbArc
 50
90.0
 51
99.59406822688062
  0
ARC
  5
1B5F
330
18
100
AcDbEntity
  8
MSL-90-S16-0
370
     0
100
AcDbCircle
 10
287.9013566982033
 20
144.0716328606252
 30
0.0
 40
9.0
100
AcDbArc
 50
170.4024025720673
 51
189.5940682268802
  0
ARC
  5
1B60
330
18
100
AcDbEntity
  8
MSL-90-S16-0
370
     0
100
AcDbCircle
 10
287.9013566982033
 20
144.0716328606252
 30
0.0
 40
9.0
100
AcDbArc
 50
260.3948279539551
 51
279.594068226881
  0
ARC
  5
1B61
330
18
100
AcDbEntity
  8
MSL-90-S16-0
370
     0
100
AcDbCircle
 10
287.9013566982033
 20
144.0716328606252
 30
0.0
 40
9.0
100
AcDbArc
 50
350.400496690572
 51
9.594068226881686
  0
ARC
  5
1B62
330
18
100
AcDbEntity
  8
MSL-90-S16-0
370
     0
100
AcDbCircle
 10
287.9013566982033
 20
144.0716328606252
 30
0.0
 40
9.0
100
AcDbArc
 50
80.40593177315988
 51
89.99999999999976
  0
ARC
  5
1B63
330
18
100
AcDbEntity
  8
MSL-90-S16-0
370
     0
100
AcDbCircle
 10
287.9013566982033
 20
144.0716328606252
 30
0.0
 40
7.500000000000003
100
AcDbArc
 50
90.0
 51
101.5369590328358
  0
ARC
  5
1B64
330
18
100
AcDbEntity
  8
MSL-90-S16-0
370
     0
100
AcDbCircle
 10
287.9013566982033
 20
144.0716328606252
 30
0.0
 40
7.500000000000003
100
AcDbArc
 50
168.463040967204
 51
191.536959032835
  0
ARC
  5
1B65
330
18
100
AcDbEntity
  8
MSL-90-S16-0
370
     0
100
AcDbCircle
 10
287.9013566982033
 20
144.0716328606252
 30
0.0
 40
7.500000000000003
100
AcDbArc
 50
258.4630409672051
 51
281.5369590328359
  0
ARC
  5
1B66
330
18
100
AcDbEntity
  8
MSL-90-S16-0
370
     0
100
AcDbCircle
 10
287.9013566982033
 20
144.0716328606252
 30
0.0
 40
7.500000000000003
100
AcDbArc
 50
348.4630409672058
 51
11.53695903283678
  0
ARC
  5
1B67
330
18
100
AcDbEntity
  8
MSL-90-S16-0
370
     0
100
AcDbCircle
 10
287.9013566982033
 20
144.0716328606252
 30
0.0
 40
7.500000000000003
100
AcDbArc
 50
78.46304096720486
 51
89.99999999999976
  0
CIRCLE
  5
1B68
330
18
100
AcDbEntity
  8
MSL-90-S16-7A
370
     0
100
AcDbCircle
 10
287.9013566982033
 20
144.0716328606252
 30
0.0
 40
29.99999999999996
  0
LINE
  5
1B69
330
18
100
AcDbEntity
  8
MSL-90-S16-7A
100
AcDbLine
 10
266.6881532625993
 20
169.5348362962142
 30
0.0
 11
266.6881532625993
 21
161.0348362962142
 31
0.0
  0
LINE
  5
1B6A
330
18
100
AcDbEntity
  8
MSL-90-S16-7A
100
AcDbLine
 10
262.4381532625993
 20
165.2848362962141
 30
0.0
 11
270.9381532625993
 21
165.2848362962141
 31
0.0
  0
LINE
  5
1BA0
330
18
100
AcDbEntity
  8
MSL-90-S16-7A
100
AcDbLine
 10
-115.7948177643296
 20
-13.89426374522348
 30
0.0
 11
-99.46769876432975
 21
-13.89426374522354
 31
0.0
  0
LINE
  5
1BA1
330
18
100
AcDbEntity
  8
MSL-90-S16-0
100
AcDbLine
 10
-113.9676987643296
 20
-18.89426374522348
 30
0.0
 11
-113.9676987643295
 21
-8.894263745223597
 31
0.0
  0
LINE
  5
1BA2
330
18
100
AcDbEntity
  8
MSL-90-S16-0
100
AcDbLine
 10
-114.4676987643295
 20
-9.394263745223597
 30
0.0
 11
-114.4676987643296
 21
-18.39426374522348
 31
0.0
  0
LINE
  5
1BA3
330
18
100
AcDbEntity
  8
MSL-90-S16-0
100
AcDbLine
 10
-114.4676987643296
 20
-18.39426374522348
 30
0.0
 11
-113.9676987643296
 21
-18.89426374522348
 31
0.0
  0
LINE
  5
1BA4
330
18
100
AcDbEntity
  8
MSL-90-S16-0
100
AcDbLine
 10
-113.9676987643296
 20
-18.89426374522348
 30
0.0
 11
-112.4676987643296
 21
-18.89426374522354
 31
0.0
  0
LINE
  5
1BA5
330
18
100
AcDbEntity
  8
MSL-90-S16-0
100
AcDbLine
 10
-113.9676987643295
 20
-8.894263745223597
 30
0.0
 11
-114.4676987643295
 21
-9.394263745223597
 31
0.0
  0
LINE
  5
1BA6
330
18
100
AcDbEntity
  8
MSL-90-S16-0
100
AcDbLine
 10
-112.4676987643296
 20
-8.894263745223597
 30
0.0
 11
-113.9676987643295
 21
-8.894263745223597
 31
0.0
  0
LINE
  5
1BA7
330
18
100
AcDbEntity
  8
MSL-90-S16-0
100
AcDbLine
 10
-113.9676987643296
 20
48.10573618483899
 30
0.0
 11
-113.9676987643295
 21
58.10573618483887
 31
0.0
  0
LINE
  5
1BA8
330
18
100
AcDbEntity
  8
MSL-90-S16-0
100
AcDbLine
 10
-114.4676987643295
 20
57.60573618483888
 30
0.0
 11
-114.4676987643296
 21
48.60573618483899
 31
0.0
  0
LINE
  5
1BA9
330
18
100
AcDbEntity
  8
MSL-90-S16-0
100
AcDbLine
 10
-114.4676987643296
 20
48.60573618483899
 30
0.0
 11
-113.9676987643296
 21
48.10573618483899
 31
0.0
  0
LINE
  5
1BAA
330
18
100
AcDbEntity
  8
MSL-90-S16-0
100
AcDbLine
 10
-113.9676987643296
 20
48.10573618483899
 30
0.0
 11
-112.4676987643296
 21
48.10573618483893
 31
0.0
  0
LINE
  5
1BAB
330
18
100
AcDbEntity
  8
MSL-90-S16-0
100
AcDbLine
 10
-113.9676987643295
 20
58.10573618483887
 30
0.0
 11
-114.4676987643295
 21
57.60573618483888
 31
0.0
  0
LINE
  5
1BAC
330
18
100
AcDbEntity
  8
MSL-90-S16-0
100
AcDbLine
 10
-112.4676987643296
 20
58.10573618483887
 30
0.0
 11
-113.9676987643295
 21
58.10573618483887
 31
0.0
  0
LINE
  5
1BAD
330
18
100
AcDbEntity
  8
MSL-90-S16-7A
100
AcDbLine
 10
-115.7948177643296
 20
53.10573618483899
 30
0.0
 11
-99.46769876432975
 21
53.10573618483893
 31
0.0
  0
LINE
  5
1BAF
330
18
100
AcDbEntity
  8
MSL-90-S16-7A
100
AcDbLine
 10
-126.5008576691758
 20
144.071632860625
 30
0.0
 11
-92.66215398504757
 21
144.071632860625
 31
0.0
  0
DIMENSION
  5
1C36
330
18
100
AcDbEntity
  8
MSL-90-S16-6
100
AcDbDimension
  2
*D3
 10
207.4960113590791
 20
94.48245746338683
 30
0.0
 11
47.49757684495167
 21
97.7328019515758
 31
0.0
 70
    32
 71
     5
 42
-1.0
  3
GEN-ISO
100
AcDbAlignedDimension
 13
-112.5008576691758
 23
106.571632860641
 33
0.0
 14
207.4960113590791
 24
106.5716328606411
 34
0.0
100
AcDbRotatedDimension
  0
ENDSEC
  0
SECTION
  2
OBJECTS
  0
DICTIONARY
  5
C
330
0
100
AcDbDictionary
281
     1
  3
ACAD_COLOR
350
1C70
  3
ACAD_GROUP
350
D
  3
ACAD_LAYOUT
350
1C88
  3
ACAD_MATERIAL
350
1C46
  3
ACAD_MLEADERSTYLE
350
1C85
  3
ACAD_MLINESTYLE
350
E
  3
ACAD_PLOTSETTINGS
350
1C89
  3
ACAD_PLOTSTYLENAME
350
1C44
  3
ACAD_SCALELIST
350
1C73
  3
ACAD_TABLESTYLE
350
1C71
  3
ACAD_VISUALSTYLE
350
1C5F
  3
ACDB_RECOMPOSE_DATA
350
1D4A
  3
AcDbVariableDictionary
350
1D41
  3
AcmDictionary
350
1CEA
  3
AcmSystemVariableManager
350
1D58
  3
AMG
350
1C8F
  3
AMGSNAPSETTINGS
350
1D3A
  3
DWGPROPS
350
1D4B
  0
DICTIONARY
  5
1D2E
330
F
100
AcDbDictionary
280
     1
281
     1
  3
ADSK_XREC_LAYER_RECONCILED
360
1D2F
  0
DICTIONARY
  5
1D30
330
138A
100
AcDbDictionary
280
     1
281
     1
  3
ADSK_XREC_LAYER_RECONCILED
360
1D31
  0
DICTIONARY
  5
1D32
330
138B
100
AcDbDictionary
280
     1
281
     1
  3
ADSK_XREC_LAYER_RECONCILED
360
1D33
  0
DICTIONARY
  5
1D34
330
138C
100
AcDbDictionary
280
     1
281
     1
  3
ADSK_XREC_LAYER_RECONCILED
360
1D35
  0
DICTIONARY
  5
1D36
330
138D
100
AcDbDictionary
280
     1
281
     1
  3
ADSK_XREC_LAYER_RECONCILED
360
1D37
  0
DICTIONARY
  5
1D38
330
1394
100
AcDbDictionary
280
     1
281
     1
  3
ADSK_XREC_LAYER_RECONCILED
360
1D39
  0
DICTIONARY
  5
1C70
102
{ACAD_REACTORS
330
C
102
}
330
C
100
AcDbDictionary
281
     1
  0
DICTIONARY
  5
D
102
{ACAD_REACTORS
330
C
102
}
330
C
100
AcDbDictionary
281
     1
  0
DICTIONARY
  5
1C88
102
{ACAD_REACTORS
330
C
102
}
330
C
100
AcDbDictionary
281
     1
  3
Layout1
350
1C8B
  3
Model
350
1C8A
  0
DICTIONARY
  5
1C46
102
{ACAD_REACTORS
330
C
102
}
330
C
100
AcDbDictionary
281
     1
  3
ByBlock
350
1C4F
  3
ByLayer
350
1C47
  3
Global
350
1C57
  0
DICTIONARY
  5
1C85
102
{ACAD_REACTORS
330
C
102
}
330
C
100
AcDbDictionary
281
     1
  3
Standard
350
1C86
  0
DICTIONARY
  5
E
102
{ACAD_REACTORS
330
C
102
}
330
C
100
AcDbDictionary
281
     1
  3
STANDARD
350
1B
  0
DICTIONARY
  5
1C89
102
{ACAD_REACTORS
330
C
102
}
330
C
100
AcDbDictionary
281
     1
  0
ACDBDICTIONARYWDFLT
  5
1C44
102
{ACAD_REACTORS
330
C
102
}
330
C
100
AcDbDictionary
281
     1
  3
Normal
350
1C45
100
AcDbDictionaryWithDefault
340
1C45
  0
DICTIONARY
  5
1C73
102
{ACAD_REACTORS
330
C
102
}
330
C
100
AcDbDictionary
281
     1
  3
A0
350
1C74
  3
A1
350
1C75
  3
A2
350
1C76
  3
A3
350
1C77
  3
A4
350
1C78
  3
A5
350
1C79
  3
A6
350
1C7A
  3
A7
350
1C7B
  3
A8
350
1C7C
  3
A9
350
1C7D
  3
B0
350
1C7E
  3
B1
350
1C7F
  3
B2
350
1C80
  3
B3
350
1C81
  3
B4
350
1C82
  3
B5
350
1C83
  3
B6
350
1C84
  0
DICTIONARY
  5
1C71
102
{ACAD_REACTORS
330
C
102
}
330
C
100
AcDbDictionary
281
     1
  3
Standard
350
1C72
  0
DICTIONARY
  5
1C5F
102
{ACAD_REACTORS
330
C
102
}
330
C
100
AcDbDictionary
281
     1
  3
2dWireframe
350
1C65
  3
3D Hidden
350
1C67
  3
3dWireframe
350
1C66
  3
Basic
350
1C64
  3
Brighten
350
1C6B
  3
ColorChange
350
1C6F
  3
Conceptual
350
1C68
  3
Dim
350
1C6A
  3
Facepattern
350
1C6E
  3
Flat
350
1C60
  3
FlatWithEdges
350
1C61
  3
Gouraud
350
1C62
  3
GouraudWithEdges
350
1C63
  3
Linepattern
350
1C6D
  3
Realistic
350
1C69
  3
Thicken
350
1C6C
  0
XRECORD
  5
1D4A
102
{ACAD_REACTORS
330
C
102
}
330
C
100
AcDbXrecord
280
     1
 90
        1
330
1C72
  0
DICTIONARY
  5
1D41
102
{ACAD_REACTORS
330
C
102
}
330
C
100
AcDbDictionary
281
     1
  3
CANNOSCALE
350
1D44
  3
CMLEADERSTYLE
350
1D43
  3
CTABLESTYLE
350
1D42
  3
DIMASSOC
350
1D47
  3
INDEXCTL
350
1D46
  3
SORTENTS
350
1D45
  0
DICTIONARY
  5
1CEA
102
{ACAD_REACTORS
330
C
102
}
330
C
100
AcDbDictionary
281
     1
  3
AcmStdDictionary
350
1CF5
  0
DICTIONARY
  5
1C8F
102
{ACAD_REACTORS
330
C
102
}
330
C
100
AcDbDictionary
281
     1
  0
DICTIONARY
  5
1D3A
102
{ACAD_REACTORS
330
C
102
}
330
C
100
AcDbDictionary
281
     1
  0
XRECORD
  5
1D4B
102
{ACAD_REACTORS
330
C
102
}
330
C
100
AcDbXrecord
280
     1
  1
DWGPROPS COOKIE
  2

  3

  4

  6

  7

  8
bauer_sven
  9

300
=
301
=
302
=
303
=
304
=
305
=
306
=
307
=
308
=
309
=
 40
0.0539230208333334
 41
2452399.741836805
 42
2456219.398323518
  1

 90
        0
  0
XRECORD
  5
1D2F
102
{ACAD_REACTORS
330
1D2E
102
}
330
1D2E
100
AcDbXrecord
280
     1
290
     1
  0
XRECORD
  5
1D31
102
{ACAD_REACTORS
330
1D30
102
}
330
1D30
100
AcDbXrecord
280
     1
290
     1
  0
XRECORD
  5
1D33
102
{ACAD_REACTORS
330
1D32
102
}
330
1D32
100
AcDbXrecord
280
     1
290
     1
  0
XRECORD
  5
1D35
102
{ACAD_REACTORS
330
1D34
102
}
330
1D34
100
AcDbXrecord
280
     1
290
     1
  0
XRECORD
  5
1D37
102
{ACAD_REACTORS
330
1D36
102
}
330
1D36
100
AcDbXrecord
280
     1
290
     1
  0
XRECORD
  5
1D39
102
{ACAD_REACTORS
330
1D38
102
}
330
1D38
100
AcDbXrecord
280
     1
290
     1
  0
LAYOUT
  5
1C8B
102
{ACAD_XDICTIONARY
360
1D52
102
}
102
{ACAD_REACTORS
330
1C88
102
}
330
1C88
100
AcDbPlotSettings
  1

  2
iR 2570CN-010
  4

  6

 40
0.0
 41
0.0
 42
0.0
 43
0.0
 44
0.0
 45
0.0
 46
0.0
 47
0.0
 48
0.0
 49
0.0
140
0.0
141
0.0
142
1.0
143
1.0
 70
   688
 72
     0
 73
     0
 74
     5
  7

 75
    16
147
1.0
148
0.0
149
0.0
100
AcDbLayout
  1
Layout1
 70
     1
 71
     1
 10
0.0
 20
0.0
 11
420.0
 21
297.0
 12
0.0
 22
0.0
 32
0.0
 14
1.000000000000000E+20
 24
1.000000000000000E+20
 34
1.000000000000000E+20
 15
-1.000000000000000E+20
 25
-1.000000000000000E+20
 35
-1.000000000000000E+20
146
0.0
 13
0.0
 23
0.0
 33
0.0
 16
1.0
 26
0.0
 36
0.0
 17
0.0
 27
1.0
 37
0.0
 76
     0
330
15
  0
LAYOUT
  5
1C8A
102
{ACAD_XDICTIONARY
360
1D50
102
}
102
{ACAD_REACTORS
330
1C88
102
}
330
1C88
100
AcDbPlotSettings
  1

  2
iR 2570CN-010
  4

  6

 40
0.0
 41
0.0
 42
0.0
 43
0.0
 44
0.0
 45
0.0
 46
0.0
 47
0.0
 48
0.0
 49
0.0
140
0.0
141
0.0
142
1.0
143
1.0
 70
  1712
 72
     0
 73
     0
 74
     0
  7

 75
     0
147
1.0
148
0.0
149
0.0
100
AcDbLayout
  1
Model
 70
     1
 71
     0
 10
0.0
 20
0.0
 11
12.0
 21
9.0
 12
0.0
 22
0.0
 32
0.0
 14
0.0
 24
0.0
 34
0.0
 15
0.0
 25
0.0
 35
0.0
146
0.0
 13
0.0
 23
0.0
 33
0.0
 16
1.0
 26
0.0
 36
0.0
 17
0.0
 27
1.0
 37
0.0
 76
     0
330
18
331
1C42
  0
MATERIAL
  5
1C4F
102
{ACAD_XDICTIONARY
360
1C50
102
}
102
{ACAD_REACTORS
330
1C46
102
}
330
1C46
100
AcDbMaterial
  1
ByBlock
 72
     0
 43
0.0208333333333333
 43
0.0
 43
0.0
 43
0.0
 43
0.0
 43
0.0208333333333333
 43
0.0
 43
0.0
 43
0.0
 43
0.0
 43
1.0
 43
0.0
 43
0.0
 43
0.0
 43
0.0
 43
1.0
 77
     0
 47
0.0208333333333333
 47
0.0
 47
0.0
 47
0.0
 47
0.0
 47
0.0208333333333333
 47
0.0
 47
0.0
 47
0.0
 47
0.0
 47
1.0
 47
0.0
 47
0.0
 47
0.0
 47
0.0
 47
1.0
171
     0
 49
0.0208333333333333
 49
0.0
 49
0.0
 49
0.0
 49
0.0
 49
0.0208333333333333
 49
0.0
 49
0.0
 49
0.0
 49
0.0
 49
1.0
 49
0.0
 49
0.0
 49
0.0
 49
0.0
 49
1.0
175
     0
142
0.0208333333333333
142
0.0
142
0.0
142
0.0
142
0.0
142
0.0208333333333333
142
0.0
142
0.0
142
0.0
142
0.0
142
1.0
142
0.0
142
0.0
142
0.0
142
0.0
142
1.0
179
     0
144
0.0208333333333333
144
0.0
144
0.0
144
0.0
144
0.0
144
0.0208333333333333
144
0.0
144
0.0
144
0.0
144
0.0
144
1.0
144
0.0
144
0.0
144
0.0
144
0.0
144
1.0
147
0.0208333333333333
147
0.0
147
0.0
147
0.0
147
0.0
147
0.0208333333333333
147
0.0
147
0.0
147
0.0
147
0.0
147
1.0
147
0.0
147
0.0
147
0.0
147
0.0
147
1.0
  0
MATERIAL
  5
1C47
102
{ACAD_XDICTIONARY
360
1C48
102
}
102
{ACAD_REACTORS
330
1C46
102
}
330
1C46
100
AcDbMaterial
  1
ByLayer
 72
     0
 43
0.0208333333333333
 43
0.0
 43
0.0
 43
0.0
 43
0.0
 43
0.0208333333333333
 43
0.0
 43
0.0
 43
0.0
 43
0.0
 43
1.0
 43
0.0
 43
0.0
 43
0.0
 43
0.0
 43
1.0
 77
     0
 47
0.0208333333333333
 47
0.0
 47
0.0
 47
0.0
 47
0.0
 47
0.0208333333333333
 47
0.0
 47
0.0
 47
0.0
 47
0.0
 47
1.0
 47
0.0
 47
0.0
 47
0.0
 47
0.0
 47
1.0
171
     0
 49
0.0208333333333333
 49
0.0
 49
0.0
 49
0.0
 49
0.0
 49
0.0208333333333333
 49
0.0
 49
0.0
 49
0.0
 49
0.0
 49
1.0
 49
0.0
 49
0.0
 49
0.0
 49
0.0
 49
1.0
175
     0
142
0.0208333333333333
142
0.0
142
0.0
142
0.0
142
0.0
142
0.0208333333333333
142
0.0
142
0.0
142
0.0
142
0.0
142
1.0
142
0.0
142
0.0
142
0.0
142
0.0
142
1.0
179
     0
144
0.0208333333333333
144
0.0
144
0.0
144
0.0
144
0.0
144
0.0208333333333333
144
0.0
144
0.0
144
0.0
144
0.0
144
1.0
144
0.0
144
0.0
144
0.0
144
0.0
144
1.0
147
0.0208333333333333
147
0.0
147
0.0
147
0.0
147
0.0
147
0.0208333333333333
147
0.0
147
0.0
147
0.0
147
0.0
147
1.0
147
0.0
147
0.0
147
0.0
147
0.0
147
1.0
  0
MATERIAL
  5
1C57
102
{ACAD_XDICTIONARY
360
1C58
102
}
102
{ACAD_REACTORS
330
1C46
102
}
330
1C46
100
AcDbMaterial
  1
Global
 72
     0
 43
0.0208333333333333
 43
0.0
 43
0.0
 43
0.0
 43
0.0
 43
0.0208333333333333
 43
0.0
 43
0.0
 43
0.0
 43
0.0
 43
1.0
 43
0.0
 43
0.0
 43
0.0
 43
0.0
 43
1.0
 77
     0
 47
0.0208333333333333
 47
0.0
 47
0.0
 47
0.0
 47
0.0
 47
0.0208333333333333
 47
0.0
 47
0.0
 47
0.0
 47
0.0
 47
1.0
 47
0.0
 47
0.0
 47
0.0
 47
0.0
 47
1.0
171
     0
 49
0.0208333333333333
 49
0.0
 49
0.0
 49
0.0
 49
0.0
 49
0.0208333333333333
 49
0.0
 49
0.0
 49
0.0
 49
0.0
 49
1.0
 49
0.0
 49
0.0
 49
0.0
 49
0.0
 49
1.0
175
     0
142
0.0208333333333333
142
0.0
142
0.0
142
0.0
142
0.0
142
0.0208333333333333
142
0.0
142
0.0
142
0.0
142
0.0
142
1.0
142
0.0
142
0.0
142
0.0
142
0.0
142
1.0
179
     0
144
0.0208333333333333
144
0.0
144
0.0
144
0.0
144
0.0
144
0.0208333333333333
144
0.0
144
0.0
144
0.0
144
0.0
144
1.0
144
0.0
144
0.0
144
0.0
144
0.0
144
1.0
147
0.0208333333333333
147
0.0
147
0.0
147
0.0
147
0.0
147
0.0208333333333333
147
0.0
147
0.0
147
0.0
147
0.0
147
1.0
147
0.0
147
0.0
147
0.0
147
0.0
147
1.0
  0
MLEADERSTYLE
  5
1C86
102
{ACAD_REACTORS
330
1C85
102
}
330
1C85
100
AcDbMLeaderStyle
170
     2
171
     1
172
     0
 90
        2
 40
0.0
 41
0.0
173
     1
 91
-1056964608
340
12
 92
       -2
290
     1
 42
2.0
291
     1
 43
0.36
  3
Standard
 44
4.0
300

342
10
174
     1
178
     6
175
     1
176
     0
 93
-1056964608
 45
4.0
292
     0
297
     0
 46
4.0
 94
-1056964608
 47
1.0
 49
1.0
140
1.0
293
     1
141
0.0
294
     1
177
     0
142
1.0
295
     0
296
     0
143
0.125
1001
ACAD_MLEADERVER
1070
     2
  0
MLINESTYLE
  5
1B
102
{ACAD_REACTORS
330
E
102
}
330
E
100
AcDbMlineStyle
  2
STANDARD
 70
     0
  3

 62
     0
 51
90.0
 52
90.0
 71
     2
 49
0.5
 62
   256
  6
BYLAYER
 49
-0.5
 62
   256
  6
BYLAYER
  0
ACDBPLACEHOLDER
  5
1C45
102
{ACAD_REACTORS
330
1C44
102
}
330
1C44
  0
SCALE
  5
1C74
102
{ACAD_REACTORS
330
1C73
102
}
330
1C73
100
AcDbScale
 70
     0
300
1:1
140
1.0
141
1.0
290
     1
  0
SCALE
  5
1C75
102
{ACAD_REACTORS
330
1C73
102
}
330
1C73
100
AcDbScale
 70
     0
300
1:2
140
1.0
141
2.0
290
     0
  0
SCALE
  5
1C76
102
{ACAD_REACTORS
330
1C73
102
}
330
1C73
100
AcDbScale
 70
     0
300
1:4
140
1.0
141
4.0
290
     0
  0
SCALE
  5
1C77
102
{ACAD_REACTORS
330
1C73
102
}
330
1C73
100
AcDbScale
 70
     0
300
1:5
140
1.0
141
5.0
290
     0
  0
SCALE
  5
1C78
102
{ACAD_REACTORS
330
1C73
102
}
330
1C73
100
AcDbScale
 70
     0
300
1:8
140
1.0
141
8.0
290
     0
  0
SCALE
  5
1C79
102
{ACAD_REACTORS
330
1C73
102
}
330
1C73
100
AcDbScale
 70
     0
300
1:10
140
1.0
141
10.0
290
     0
  0
SCALE
  5
1C7A
102
{ACAD_REACTORS
330
1C73
102
}
330
1C73
100
AcDbScale
 70
     0
300
1:16
140
1.0
141
16.0
290
     0
  0
SCALE
  5
1C7B
102
{ACAD_REACTORS
330
1C73
102
}
330
1C73
100
AcDbScale
 70
     0
300
1:20
140
1.0
141
20.0
290
     0
  0
SCALE
  5
1C7C
102
{ACAD_REACTORS
330
1C73
102
}
330
1C73
100
AcDbScale
 70
     0
300
1:30
140
1.0
141
30.0
290
     0
  0
SCALE
  5
1C7D
102
{ACAD_REACTORS
330
1C73
102
}
330
1C73
100
AcDbScale
 70
     0
300
1:40
140
1.0
141
40.0
290
     0
  0
SCALE
  5
1C7E
102
{ACAD_REACTORS
330
1C73
102
}
330
1C73
100
AcDbScale
 70
     0
300
1:50
140
1.0
141
50.0
290
     0
  0
SCALE
  5
1C7F
102
{ACAD_REACTORS
330
1C73
102
}
330
1C73
100
AcDbScale
 70
     0
300
1:100
140
1.0
141
100.0
290
     0
  0
SCALE
  5
1C80
102
{ACAD_REACTORS
330
1C73
102
}
330
1C73
100
AcDbScale
 70
     0
300
2:1
140
2.0
141
1.0
290
     0
  0
SCALE
  5
1C81
102
{ACAD_REACTORS
330
1C73
102
}
330
1C73
100
AcDbScale
 70
     0
300
4:1
140
4.0
141
1.0
290
     0
  0
SCALE
  5
1C82
102
{ACAD_REACTORS
330
1C73
102
}
330
1C73
100
AcDbScale
 70
     0
300
8:1
140
8.0
141
1.0
290
     0
  0
SCALE
  5
1C83
102
{ACAD_REACTORS
330
1C73
102
}
330
1C73
100
AcDbScale
 70
     0
300
10:1
140
10.0
141
1.0
290
     0
  0
SCALE
  5
1C84
102
{ACAD_REACTORS
330
1C73
102
}
330
1C73
100
AcDbScale
 70
     0
300
100:1
140
100.0
141
1.0
290
     0
  0
TABLESTYLE
  5
1C72
102
{ACAD_XDICTIONARY
360
1D48
102
}
102
{ACAD_REACTORS
330
1C71
102
}
330
1C71
100
AcDbTableStyle
  3
Standard
 70
     0
 71
     0
 40
1.5
 41
1.5
280
     0
281
     0
  7
STANDARD
140
4.5
170
     2
 62
     0
 63
     7
283
     0
274
    -2
284
     1
 64
     0
275
    -2
285
     1
 65
     0
276
    -2
286
     1
 66
     0
277
    -2
287
     1
 67
     0
278
    -2
288
     1
 68
     0
279
    -2
289
     1
 69
     0
  7
STANDARD
140
6.0
170
     5
 62
     0
 63
     7
283
     0
274
    -2
284
     1
 64
     0
275
    -2
285
     1
 65
     0
276
    -2
286
     1
 66
     0
277
    -2
287
     1
 67
     0
278
    -2
288
     1
 68
     0
279
    -2
289
     1
 69
     0
  7
STANDARD
140
4.5
170
     5
 62
     0
 63
     7
283
     0
274
    -2
284
     1
 64
     0
275
    -2
285
     1
 65
     0
276
    -2
286
     1
 66
     0
277
    -2
287
     1
 67
     0
278
    -2
288
     1
 68
     0
279
    -2
289
     1
 69
     0
  0
VISUALSTYLE
  5
1C65
102
{ACAD_REACTORS
330
1C5F
102
}
330
1C5F
100
AcDbVisualStyle
  2
2dWireframe
 70
     4
 71
     0
 72
     2
 73
     0
 90
        0
 40
-0.6
 41
-30.0
 62
     5
 63
     7
 74
     1
 91
        4
 64
     7
 65
   257
 75
     1
175
     1
 42
1.0
 92
        0
 66
   257
 43
1.0
 76
     1
 77
     6
 78
     2
 67
     7
 79
     5
170
     0
171
     0
290
     0
174
     0
 93
        1
 44
0.0
173
     0
291
     0
 45
0.0
1001
ACAD
1000
AcDbSavedByObjectVersion
1070
     0
  0
VISUALSTYLE
  5
1C67
102
{ACAD_REACTORS
330
1C5F
102
}
330
1C5F
100
AcDbVisualStyle
  2
3D Hidden
 70
     6
 71
     1
 72
     2
 73
     2
 90
        0
 40
-0.6
 41
-30.0
 62
     5
 63
     7
 74
     2
 91
        2
 64
     7
 65
   257
 75
     2
175
     1
 42
40.0
 92
        0
 66
   257
 43
1.0
 76
     1
 77
     6
 78
     2
 67
     7
 79
     3
170
     0
171
     0
290
     0
174
     0
 93
        1
 44
0.0
173
     0
291
     0
 45
0.0
1001
ACAD
1000
AcDbSavedByObjectVersion
1070
     0
  0
VISUALSTYLE
  5
1C66
102
{ACAD_REACTORS
330
1C5F
102
}
330
1C5F
100
AcDbVisualStyle
  2
3dWireframe
 70
     5
 71
     0
 72
     2
 73
     0
 90
        0
 40
-0.6
 41
-30.0
 62
     5
 63
     7
 74
     1
 91
        4
 64
     7
 65
   257
 75
     1
175
     1
 42
1.0
 92
        0
 66
   257
 43
1.0
 76
     1
 77
     6
 78
     2
 67
     7
 79
     5
170
     0
171
     0
290
     0
174
     0
 93
        1
 44
0.0
173
     0
291
     0
 45
0.0
1001
ACAD
1000
AcDbSavedByObjectVersion
1070
     0
  0
VISUALSTYLE
  5
1C64
102
{ACAD_REACTORS
330
1C5F
102
}
330
1C5F
100
AcDbVisualStyle
  2
Basic
 70
     7
 71
     1
 72
     0
 73
     1
 90
        0
 40
-0.6
 41
-30.0
 62
     5
 63
     7
 74
     0
 91
        4
 64
     7
 65
   257
 75
     1
175
     1
 42
1.0
 92
        8
 66
     7
 43
1.0
 76
     1
 77
     6
 78
     2
 67
     7
 79
     5
170
     0
171
     0
290
     0
174
     0
 93
        1
 44
0.0
173
     0
291
     1
 45
0.0
1001
ACAD
1000
AcDbSavedByObjectVersion
1070
     0
  0
VISUALSTYLE
  5
1C6B
102
{ACAD_REACTORS
330
1C5F
102
}
330
1C5F
100
AcDbVisualStyle
  2
Brighten
 70
    12
 71
     2
 72
     2
 73
     0
 90
        0
 40
-0.6
 41
-30.0
 62
     5
 63
     7
 74
     1
 91
        4
 64
     7
 65
   257
 75
     1
175
     1
 42
1.0
 92
        8
 66
     7
 43
1.0
 76
     1
 77
     6
 78
     2
 67
     7
 79
     5
170
     0
171
     0
290
     0
174
     0
 93
        1
 44
50.0
173
     0
291
     1
 45
0.0
1001
ACAD
1000
AcDbSavedByObjectVersion
1070
     0
  0
VISUALSTYLE
  5
1C6F
102
{ACAD_REACTORS
330
1C5F
102
}
330
1C5F
100
AcDbVisualStyle
  2
ColorChange
 70
    16
 71
     2
 72
     2
 73
     3
 90
        0
 40
-0.6
 41
-30.0
 62
     5
 63
     8
 74
     1
 91
        4
 64
     7
 65
   257
 75
     1
175
     1
 42
1.0
 92
        8
 66
     8
 43
1.0
 76
     1
 77
     6
 78
     2
 67
     7
 79
     5
170
     0
171
     0
290
     0
174
     0
 93
        1
 44
0.0
173
     0
291
     1
 45
0.0
1001
ACAD
1000
AcDbSavedByObjectVersion
1070
     0
  0
VISUALSTYLE
  5
1C68
102
{ACAD_REACTORS
330
1C5F
102
}
330
1C5F
100
AcDbVisualStyle
  2
Conceptual
 70
     9
 71
     3
 72
     2
 73
     0
 90
        0
 40
-0.6
 41
-30.0
 62
     5
 63
     7
 74
     2
 91
        2
 64
     7
 65
   257
 75
     1
175
     1
 42
40.0
 92
        8
 66
     7
 43
1.0
 76
     1
 77
     6
 78
     2
 67
     7
 79
     3
170
     0
171
     0
290
     0
174
     0
 93
        1
 44
0.0
173
     0
291
     0
 45
0.0
1001
ACAD
1000
AcDbSavedByObjectVersion
1070
     0
  0
VISUALSTYLE
  5
1C6A
102
{ACAD_REACTORS
330
1C5F
102
}
330
1C5F
100
AcDbVisualStyle
  2
Dim
 70
    11
 71
     2
 72
     2
 73
     0
 90
        0
 40
-0.6
 41
-30.0
 62
     5
 63
     7
 74
     1
 91
        4
 64
     7
 65
   257
 75
     1
175
     1
 42
1.0
 92
        8
 66
     7
 43
1.0
 76
     1
 77
     6
 78
     2
 67
     7
 79
     5
170
     0
171
     0
290
     0
174
     0
 93
        1
 44
-50.0
173
     0
291
     1
 45
0.0
1001
ACAD
1000
AcDbSavedByObjectVersion
1070
     0
  0
VISUALSTYLE
  5
1C6E
102
{ACAD_REACTORS
330
1C5F
102
}
330
1C5F
100
AcDbVisualStyle
  2
Facepattern
 70
    15
 71
     2
 72
     2
 73
     0
 90
        0
 40
-0.6
 41
-30.0
 62
     5
 63
     7
 74
     1
 91
        4
 64
     7
 65
   257
 75
     1
175
     1
 42
1.0
 92
        8
 66
     7
 43
1.0
 76
     1
 77
     6
 78
     2
 67
     7
 79
     5
170
     0
171
     0
290
     0
174
     0
 93
        1
 44
0.0
173
     0
291
     1
 45
0.0
1001
ACAD
1000
AcDbSavedByObjectVersion
1070
     0
  0
VISUALSTYLE
  5
1C60
102
{ACAD_REACTORS
330
1C5F
102
}
330
1C5F
100
AcDbVisualStyle
  2
Flat
 70
     0
 71
     2
 72
     1
 73
     1
 90
        2
 40
-0.6
 41
30.0
 62
     5
 63
     7
 74
     0
 91
        4
 64
     7
 65
   257
 75
     1
175
     1
 42
1.0
 92
        8
 66
     7
 43
1.0
 76
     1
 77
     6
 78
     2
 67
     7
 79
     5
170
     0
171
     0
290
     0
174
     0
 93
       13
 44
0.0
173
     0
291
     1
 45
0.0
1001
ACAD
1000
AcDbSavedByObjectVersion
1070
     0
  0
VISUALSTYLE
  5
1C61
102
{ACAD_REACTORS
330
1C5F
102
}
330
1C5F
100
AcDbVisualStyle
  2
FlatWithEdges
 70
     1
 71
     2
 72
     1
 73
     1
 90
        2
 40
-0.6
 41
30.0
 62
     5
 63
     7
 74
     1
 91
        4
 64
     7
 65
   257
 75
     1
175
     1
 42
1.0
 92
        0
 66
   257
 43
1.0
 76
     1
 77
     6
 78
     2
 67
     7
 79
     5
170
     0
171
     0
290
     0
174
     0
 93
       13
 44
0.0
173
     0
291
     1
 45
0.0
1001
ACAD
1000
AcDbSavedByObjectVersion
1070
     0
  0
VISUALSTYLE
  5
1C62
102
{ACAD_REACTORS
330
1C5F
102
}
330
1C5F
100
AcDbVisualStyle
  2
Gouraud
 70
     2
 71
     2
 72
     2
 73
     1
 90
        2
 40
-0.6
 41
30.0
 62
     5
 63
     7
 74
     0
 91
        4
 64
     7
 65
   257
 75
     1
175
     1
 42
1.0
 92
        0
 66
     7
 43
1.0
 76
     1
 77
     6
 78
     2
 67
     7
 79
     5
170
     0
171
     0
290
     0
174
     0
 93
       13
 44
0.0
173
     0
291
     1
 45
0.0
1001
ACAD
1000
AcDbSavedByObjectVersion
1070
     0
  0
VISUALSTYLE
  5
1C63
102
{ACAD_REACTORS
330
1C5F
102
}
330
1C5F
100
AcDbVisualStyle
  2
GouraudWithEdges
 70
     3
 71
     2
 72
     2
 73
     1
 90
        2
 40
-0.6
 41
30.0
 62
     5
 63
     7
 74
     1
 91
        4
 64
     7
 65
   257
 75
     1
175
     1
 42
1.0
 92
        0
 66
   257
 43
1.0
 76
     1
 77
     6
 78
     2
 67
     7
 79
     5
170
     0
171
     0
290
     0
174
     0
 93
       13
 44
0.0
173
     0
291
     1
 45
0.0
1001
ACAD
1000
AcDbSavedByObjectVersion
1070
     0
  0
VISUALSTYLE
  5
1C6D
102
{ACAD_REACTORS
330
1C5F
102
}
330
1C5F
100
AcDbVisualStyle
  2
Linepattern
 70
    14
 71
     2
 72
     2
 73
     0
 90
        0
 40
-0.6
 41
-30.0
 62
     5
 63
     7
 74
     1
 91
        4
 64
     7
 65
   257
 75
     7
175
     7
 42
1.0
 92
        8
 66
     7
 43
1.0
 76
     1
 77
     6
 78
     2
 67
     7
 79
     5
170
     0
171
     0
290
     0
174
     0
 93
        1
 44
0.0
173
     0
291
     1
 45
0.0
1001
ACAD
1000
AcDbSavedByObjectVersion
1070
     0
  0
VISUALSTYLE
  5
1C69
102
{ACAD_REACTORS
330
1C5F
102
}
330
1C5F
100
AcDbVisualStyle
  2
Realistic
 70
     8
 71
     2
 72
     2
 73
     0
 90
        0
 40
-0.6
 41
-30.0
 62
     5
 63
     7
 74
     1
 91
        0
 64
     7
 65
   257
 75
     1
175
     1
 42
1.0
 92
        8
 66
     8
 43
1.0
 76
     1
 77
     6
 78
     2
 67
     7
 79
     5
170
     0
171
     0
290
     0
174
     0
 93
       13
 44
0.0
173
     0
291
     0
 45
0.0
1001
ACAD
1000
AcDbSavedByObjectVersion
1070
     0
  0
VISUALSTYLE
  5
1C6C
102
{ACAD_REACTORS
330
1C5F
102
}
330
1C5F
100
AcDbVisualStyle
  2
Thicken
 70
    13
 71
     2
 72
     2
 73
     0
 90
        0
 40
-0.6
 41
-30.0
 62
     5
 63
     7
 74
     1
 91
        4
 64
     7
 65
   257
 75
     1
175
     1
 42
1.0
 92
       12
 66
     7
 43
1.0
 76
     1
 77
     6
 78
     2
 67
     7
 79
     5
170
     0
171
     0
290
     0
174
     0
 93
        1
 44
0.0
173
     0
291
     1
 45
0.0
1001
ACAD
1000
AcDbSavedByObjectVersion
1070
     0
  0
DICTIONARYVAR
  5
1D44
102
{ACAD_REACTORS
330
1D41
102
}
330
1D41
100
DictionaryVariables
280
     0
  1
1:1
  0
DICTIONARYVAR
  5
1D43
102
{ACAD_REACTORS
330
1D41
102
}
330
1D41
100
DictionaryVariables
280
     0
  1
STANDARD
  0
DICTIONARYVAR
  5
1D42
102
{ACAD_REACTORS
330
1D41
102
}
330
1D41
100
DictionaryVariables
280
     0
  1
STANDARD
  0
DICTIONARYVAR
  5
1D47
102
{ACAD_REACTORS
330
1D41
102
}
330
1D41
100
DictionaryVariables
280
     0
  1
1
  0
DICTIONARYVAR
  5
1D46
102
{ACAD_REACTORS
330
1D41
102
}
330
1D41
100
DictionaryVariables
280
     0
  1
0
  0
DICTIONARYVAR
  5
1D45
102
{ACAD_REACTORS
330
1D41
102
}
330
1D41
100
DictionaryVariables
280
     0
  1
127
  0
DICTIONARY
  5
1CF5
102
{ACAD_REACTORS
330
1CEA
102
}
330
1CEA
100
AcDbDictionary
281
     1
  0
DICTIONARY
  5
1D52
330
1C8B
100
AcDbDictionary
280
     1
281
     1
  3
ACAD_XREC_ROUNDTRIP
360
1D53
  0
DICTIONARY
  5
1D50
330
1C8A
100
AcDbDictionary
280
     1
281
     1
  3
ACAD_XREC_ROUNDTRIP
360
1D51
  0
DICTIONARY
  5
1C50
330
1C4F
100
AcDbDictionary
280
     1
281
     1
  3
ACAD_XREC_ROUNDTRIP
360
1D4D
  3
BUMPTILE
360
1C52
  3
DIFFUSETILE
360
1C51
  3
OPACITYTILE
360
1C55
  3
REFLECTIONTILE
360
1C54
  3
REFRACTIONTILE
360
1C56
  3
SPECULARTILE
360
1C53
  0
DICTIONARY
  5
1C48
330
1C47
100
AcDbDictionary
280
     1
281
     1
  3
ACAD_XREC_ROUNDTRIP
360
1D4C
  3
BUMPTILE
360
1C4A
  3
DIFFUSETILE
360
1C49
  3
OPACITYTILE
360
1C4D
  3
REFLECTIONTILE
360
1C4C
  3
REFRACTIONTILE
360
1C4E
  3
SPECULARTILE
360
1C4B
  0
DICTIONARY
  5
1C58
330
1C57
100
AcDbDictionary
280
     1
281
     1
  3
ACAD_XREC_ROUNDTRIP
360
1D4E
  3
BUMPTILE
360
1C5A
  3
DIFFUSETILE
360
1C59
  3
OPACITYTILE
360
1C5D
  3
REFLECTIONTILE
360
1C5C
  3
REFRACTIONTILE
360
1C5E
  3
SPECULARTILE
360
1C5B
  0
DICTIONARY
  5
1D48
330
1C72
100
AcDbDictionary
280
     1
281
     1
  3
ACAD_ROUNDTRIP_2008_TABLESTYLE_CELLSTYLEMAP
360
1D49
  3
ACAD_XREC_ROUNDTRIP
360
1D4F
  0
XRECORD
  5
1D53
102
{ACAD_REACTORS
330
1D52
102
}
330
1D52
100
AcDbXrecord
280
     1
102
SHADEPLOT
 70
     0
102
SHADEPLOTRESLEVEL
 70
     2
102
SHADEPLOTCUSTOMDPI
 70
   300
  0
XRECORD
  5
1D51
102
{ACAD_REACTORS
330
1D50
102
}
330
1D50
100
AcDbXrecord
280
     1
102
SHADEPLOT
 70
     0
102
SHADEPLOTRESLEVEL
 70
     2
102
SHADEPLOTCUSTOMDPI
 70
   300
  0
XRECORD
  5
1D4D
102
{ACAD_REACTORS
330
1C50
102
}
330
1C50
100
AcDbXrecord
280
     1
102
MATERIAL
148
0.0
149
0.0
149
0.0
 93
        0
 94
      127
282
     0
 72
     0
 77
     0
171
     0
175
     0
179
     0
273
     0
  0
XRECORD
  5
1C52
102
{ACAD_REACTORS
330
1C50
102
}
330
1C50
100
AcDbXrecord
280
     1
270
     1
271
     1
  0
XRECORD
  5
1C51
102
{ACAD_REACTORS
330
1C50
102
}
330
1C50
100
AcDbXrecord
280
     1
270
     1
271
     1
  0
XRECORD
  5
1C55
102
{ACAD_REACTORS
330
1C50
102
}
330
1C50
100
AcDbXrecord
280
     1
270
     1
271
     1
  0
XRECORD
  5
1C54
102
{ACAD_REACTORS
330
1C50
102
}
330
1C50
100
AcDbXrecord
280
     1
270
     1
271
     1
  0
XRECORD
  5
1C56
102
{ACAD_REACTORS
330
1C50
102
}
330
1C50
100
AcDbXrecord
280
     1
270
     1
271
     1
  0
XRECORD
  5
1C53
102
{ACAD_REACTORS
330
1C50
102
}
330
1C50
100
AcDbXrecord
280
     1
270
     1
271
     1
  0
XRECORD
  5
1D4C
102
{ACAD_REACTORS
330
1C48
102
}
330
1C48
100
AcDbXrecord
280
     1
102
MATERIAL
148
0.0
149
0.0
149
0.0
 93
        0
 94
      127
282
     0
 72
     0
 77
     0
171
     0
175
     0
179
     0
273
     0
  0
XRECORD
  5
1C4A
102
{ACAD_REACTORS
330
1C48
102
}
330
1C48
100
AcDbXrecord
280
     1
270
     1
271
     1
  0
XRECORD
  5
1C49
102
{ACAD_REACTORS
330
1C48
102
}
330
1C48
100
AcDbXrecord
280
     1
270
     1
271
     1
  0
XRECORD
  5
1C4D
102
{ACAD_REACTORS
330
1C48
102
}
330
1C48
100
AcDbXrecord
280
     1
270
     1
271
     1
  0
XRECORD
  5
1C4C
102
{ACAD_REACTORS
330
1C48
102
}
330
1C48
100
AcDbXrecord
280
     1
270
     1
271
     1
  0
XRECORD
  5
1C4E
102
{ACAD_REACTORS
330
1C48
102
}
330
1C48
100
AcDbXrecord
280
     1
270
     1
271
     1
  0
XRECORD
  5
1C4B
102
{ACAD_REACTORS
330
1C48
102
}
330
1C48
100
AcDbXrecord
280
     1
270
     1
271
     1
  0
XRECORD
  5
1D4E
102
{ACAD_REACTORS
330
1C58
102
}
330
1C58
100
AcDbXrecord
280
     1
102
MATERIAL
148
0.0
149
0.0
149
0.0
 93
        0
 94
      127
282
     0
 72
     0
 77
     0
171
     0
175
     0
179
     0
273
     0
  0
XRECORD
  5
1C5A
102
{ACAD_REACTORS
330
1C58
102
}
330
1C58
100
AcDbXrecord
280
     1
270
     1
271
     1
  0
XRECORD
  5
1C59
102
{ACAD_REACTORS
330
1C58
102
}
330
1C58
100
AcDbXrecord
280
     1
270
     1
271
     1
  0
XRECORD
  5
1C5D
102
{ACAD_REACTORS
330
1C58
102
}
330
1C58
100
AcDbXrecord
280
     1
270
     1
271
     1
  0
XRECORD
  5
1C5C
102
{ACAD_REACTORS
330
1C58
102
}
330
1C58
100
AcDbXrecord
280
     1
270
     1
271
     1
  0
XRECORD
  5
1C5E
102
{ACAD_REACTORS
330
1C58
102
}
330
1C58
100
AcDbXrecord
280
     1
270
     1
271
     1
  0
XRECORD
  5
1C5B
102
{ACAD_REACTORS
330
1C58
102
}
330
1C58
100
AcDbXrecord
280
     1
270
     1
271
     1
  0
CELLSTYLEMAP
  5
1D49
102
{ACAD_REACTORS
330
1D48
102
}
330
1D48
100
AcDbCellStyleMap
 90
        3
300
CELLSTYLE
  1
TABLEFORMAT_BEGIN
 90
        5
170
     1
 91
        0
 92
    32768
 62
   257
 93
        1
300
CONTENTFORMAT
  1
CONTENTFORMAT_BEGIN
 90
        0
 91
        0
 92
      512
 93
        0
300

 40
0.0
140
1.0
 94
        5
 62
     0
340
10
144
6.0
309
CONTENTFORMAT_END
171
     1
301
MARGIN
  1
CELLMARGIN_BEGIN
 40
1.5
 40
1.5
 40
1.5
 40
1.5
 40
4.5
 40
4.5
309
CELLMARGIN_END
 94
        6
 95
        1
302
GRIDFORMAT
  1
GRIDFORMAT_BEGIN
 90
        0
 91
        1
 62
     0
 92
       -2
340
0
 93
        0
 40
1.125
309
GRIDFORMAT_END
 95
        2
302
GRIDFORMAT
  1
GRIDFORMAT_BEGIN
 90
        0
 91
        1
 62
     0
 92
       -2
340
0
 93
        0
 40
1.125
309
GRIDFORMAT_END
 95
        4
302
GRIDFORMAT
  1
GRIDFORMAT_BEGIN
 90
        0
 91
        1
 62
     0
 92
       -2
340
0
 93
        0
 40
1.125
309
GRIDFORMAT_END
 95
        8
302
GRIDFORMAT
  1
GRIDFORMAT_BEGIN
 90
        0
 91
        1
 62
     0
 92
       -2
340
0
 93
        0
 40
1.125
309
GRIDFORMAT_END
 95
       16
302
GRIDFORMAT
  1
GRIDFORMAT_BEGIN
 90
        0
 91
        1
 62
     0
 92
       -2
340
0
 93
        0
 40
1.125
309
GRIDFORMAT_END
 95
       32
302
GRIDFORMAT
  1
GRIDFORMAT_BEGIN
 90
        0
 91
        1
 62
     0
 92
       -2
340
0
 93
        0
 40
1.125
309
GRIDFORMAT_END
309
TABLEFORMAT_END
  1
CELLSTYLE_BEGIN
 90
        1
 91
        1
300
_TITLE
309
CELLSTYLE_END
300
CELLSTYLE
  1
TABLEFORMAT_BEGIN
 90
        5
170
     1
 91
        0
 92
        0
 62
   257
 93
        1
300
CONTENTFORMAT
  1
CONTENTFORMAT_BEGIN
 90
        0
 91
        0
 92
      512
 93
        0
300

 40
0.0
140
1.0
 94
        5
 62
     0
340
10
144
4.5
309
CONTENTFORMAT_END
171
     1
301
MARGIN
  1
CELLMARGIN_BEGIN
 40
1.5
 40
1.5
 40
1.5
 40
1.5
 40
4.5
 40
4.5
309
CELLMARGIN_END
 94
        6
 95
        1
302
GRIDFORMAT
  1
GRIDFORMAT_BEGIN
 90
        0
 91
        1
 62
     0
 92
       -2
340
0
 93
        0
 40
1.125
309
GRIDFORMAT_END
 95
        2
302
GRIDFORMAT
  1
GRIDFORMAT_BEGIN
 90
        0
 91
        1
 62
     0
 92
       -2
340
0
 93
        0
 40
1.125
309
GRIDFORMAT_END
 95
        4
302
GRIDFORMAT
  1
GRIDFORMAT_BEGIN
 90
        0
 91
        1
 62
     0
 92
       -2
340
0
 93
        0
 40
1.125
309
GRIDFORMAT_END
 95
        8
302
GRIDFORMAT
  1
GRIDFORMAT_BEGIN
 90
        0
 91
        1
 62
     0
 92
       -2
340
0
 93
        0
 40
1.125
309
GRIDFORMAT_END
 95
       16
302
GRIDFORMAT
  1
GRIDFORMAT_BEGIN
 90
        0
 91
        1
 62
     0
 92
       -2
340
0
 93
        0
 40
1.125
309
GRIDFORMAT_END
 95
       32
302
GRIDFORMAT
  1
GRIDFORMAT_BEGIN
 90
        0
 91
        1
 62
     0
 92
       -2
340
0
 93
        0
 40
1.125
309
GRIDFORMAT_END
309
TABLEFORMAT_END
  1
CELLSTYLE_BEGIN
 90
        2
 91
        1
300
_HEADER
309
CELLSTYLE_END
300
CELLSTYLE
  1
TABLEFORMAT_BEGIN
 90
        5
170
     1
 91
        0
 92
        0
 62
   257
 93
        1
300
CONTENTFORMAT
  1
CONTENTFORMAT_BEGIN
 90
        0
 91
        0
 92
      512
 93
        0
300

 40
0.0
140
1.0
 94
        2
 62
     0
340
10
144
4.5
309
CONTENTFORMAT_END
171
     1
301
MARGIN
  1
CELLMARGIN_BEGIN
 40
1.5
 40
1.5
 40
1.5
 40
1.5
 40
4.5
 40
4.5
309
CELLMARGIN_END
 94
        6
 95
        1
302
GRIDFORMAT
  1
GRIDFORMAT_BEGIN
 90
        0
 91
        1
 62
     0
 92
       -2
340
0
 93
        0
 40
1.125
309
GRIDFORMAT_END
 95
        2
302
GRIDFORMAT
  1
GRIDFORMAT_BEGIN
 90
        0
 91
        1
 62
     0
 92
       -2
340
0
 93
        0
 40
1.125
309
GRIDFORMAT_END
 95
        4
302
GRIDFORMAT
  1
GRIDFORMAT_BEGIN
 90
        0
 91
        1
 62
     0
 92
       -2
340
0
 93
        0
 40
1.125
309
GRIDFORMAT_END
 95
        8
302
GRIDFORMAT
  1
GRIDFORMAT_BEGIN
 90
        0
 91
        1
 62
     0
 92
       -2
340
0
 93
        0
 40
1.125
309
GRIDFORMAT_END
 95
       16
302
GRIDFORMAT
  1
GRIDFORMAT_BEGIN
 90
        0
 91
        1
 62
     0
 92
       -2
340
0
 93
        0
 40
1.125
309
GRIDFORMAT_END
 95
       32
302
GRIDFORMAT
  1
GRIDFORMAT_BEGIN
 90
        0
 91
        1
 62
     0
 92
       -2
340
0
 93
        0
 40
1.125
309
GRIDFORMAT_END
309
TABLEFORMAT_END
  1
CELLSTYLE_BEGIN
 90
        3
 91
        2
300
_DATA
309
CELLSTYLE_END
  0
XRECORD
  5
1D4F
102
{ACAD_REACTORS
330
1D48
102
}
330
1D48
100
AcDbXrecord
280
     1
102
ACAD_ROUNDTRIP_PRE2007_TABLESTYLE
 90
      512
 91
        0
  1

 92
      512
 93
        0
  2

 94
      512
 95
        0
  3

  0
ENDSEC
  0
EOF
