  0
SECTION
  2
HEADER
  9
$ACADVER
  1
AC1015
  9
$ACADMAINTVER
 70
    20
  9
$DWGCODEPAGE
  3
ANSI_1252
  9
$INSBASE
 10
0.0
 20
0.0
 30
0.0
  9
$EXTMIN
 10
77.30539599833683
 20
75.00941376217304
 30
-0.00000001
  9
$EXTMAX
 10
553.9354670418909
 20
295.7901161219999
 30
0.00000001
  9
$LIMMIN
 10
0.0
 20
0.0
  9
$LIMMAX
 10
420.0
 20
297.0
  9
$ORTHOMODE
 70
     1
  9
$REGENMODE
 70
     1
  9
$FILLMODE
 70
     1
  9
$QTEXTMODE
 70
     0
  9
$MIRRTEXT
 70
     1
  9
$LTSCALE
 40
1.0
  9
$ATTMODE
 70
     1
  9
$TEXTSIZE
 40
3.5
  9
$TRACEWID
 40
1.0
  9
$TEXTSTYLE
  7
STANDARD
  9
$CLAYER
  8
MSL-90-S16-S-6
  9
$CELTYPE
  6
BYLAYER
  9
$CECOLOR
 62
   256
  9
$CELTSCALE
 40
1.0
  9
$DISPSILH
 70
     0
  9
$DIMSCALE
 40
1.0
  9
$DIMASZ
 40
2.5
  9
$DIMEXO
 40
1.0
  9
$DIMDLI
 40
10.0
  9
$DIMRND
 40
0.0
  9
$DIMDLE
 40
0.0
  9
$DIMEXE
 40
2.0
  9
$DIMTP
 40
0.1
  9
$DIMTM
 40
0.1
  9
$DIMTXT
 40
3.5
  9
$DIMCEN
 40
-2.0
  9
$DIMTSZ
 40
0.0
  9
$DIMTOL
 70
     0
  9
$DIMLIM
 70
     0
  9
$DIMTIH
 70
     0
  9
$DIMTOH
 70
     0
  9
$DIMSE1
 70
     0
  9
$DIMSE2
 70
     0
  9
$DIMTAD
 70
     1
  9
$DIMZIN
 70
     8
  9
$DIMBLK
  1

  9
$DIMASO
 70
     1
  9
$DIMSHO
 70
     1
  9
$DIMPOST
  1

  9
$DIMAPOST
  1

  9
$DIMALT
 70
     0
  9
$DIMALTD
 70
     2
  9
$DIMALTF
 40
25.4
  9
$DIMLFAC
 40
1.0
  9
$DIMTOFL
 70
     1
  9
$DIMTVP
 40
0.0
  9
$DIMTIX
 70
     0
  9
$DIMSOXD
 70
     0
  9
$DIMSAH
 70
     0
  9
$DIMBLK1
  1

  9
$DIMBLK2
  1

  9
$DIMSTYLE
  2
GEN-ISO
  9
$DIMCLRD
 70
     0
  9
$DIMCLRE
 70
     0
  9
$DIMCLRT
 70
     2
  9
$DIMTFAC
 40
1.0
  9
$DIMGAP
 40
1.5
  9
$DIMJUST
 70
     0
  9
$DIMSD1
 70
     0
  9
$DIMSD2
 70
     0
  9
$DIMTOLJ
 70
     0
  9
$DIMTZIN
 70
     8
  9
$DIMALTZ
 70
     8
  9
$DIMALTTZ
 70
     8
  9
$DIMUPT
 70
     0
  9
$DIMDEC
 70
     2
  9
$DIMTDEC
 70
     5
  9
$DIMALTU
 70
     2
  9
$DIMALTTD
 70
     2
  9
$DIMTXSTY
  7
STANDARD
  9
$DIMAUNIT
 70
     0
  9
$DIMADEC
 70
     0
  9
$DIMALTRND
 40
0.0
  9
$DIMAZIN
 70
     0
  9
$DIMDSEP
 70
    46
  9
$DIMATFIT
 70
     3
  9
$DIMFRAC
 70
     0
  9
$DIMLDRBLK
  1

  9
$DIMLUNIT
 70
     2
  9
$DIMLWD
 70
    -2
  9
$DIMLWE
 70
    -2
  9
$DIMTMOVE
 70
     0
  9
$LUNITS
 70
     2
  9
$LUPREC
 70
     4
  9
$SKETCHINC
 40
1.0
  9
$FILLETRAD
 40
0.0
  9
$AUNITS
 70
     0
  9
$AUPREC
 70
     0
  9
$MENU
  1
acad
  9
$ELEVATION
 40
0.0
  9
$PELEVATION
 40
0.0
  9
$THICKNESS
 40
0.0
  9
$LIMCHECK
 70
     0
  9
$CHAMFERA
 40
10.0
  9
$CHAMFERB
 40
10.0
  9
$CHAMFERC
 40
0.0
  9
$CHAMFERD
 40
0.0
  9
$SKPOLY
 70
     0
  9
$TDCREATE
 40
2452400.579435880
  9
$TDUCREATE
 40
2452400.496102546
  9
$TDUPDATE
 40
2456219.404128091
  9
$TDUUPDATE
 40
2456219.320794757
  9
$TDINDWG
 40
0.1061806134
  9
$TDUSRTIMER
 40
0.1061806134
  9
$USRTIMER
 70
     1
  9
$ANGBASE
 50
0.0
  9
$ANGDIR
 70
     0
  9
$PDMODE
 70
     0
  9
$PDSIZE
 40
0.0
  9
$PLINEWID
 40
0.0
  9
$SPLFRAME
 70
     0
  9
$SPLINETYPE
 70
     6
  9
$SPLINESEGS
 70
     8
  9
$HANDSEED
  5
1BF1
  9
$SURFTAB1
 70
     6
  9
$SURFTAB2
 70
     6
  9
$SURFTYPE
 70
     6
  9
$SURFU
 70
     6
  9
$SURFV
 70
     6
  9
$UCSBASE
  2

  9
$UCSNAME
  2

  9
$UCSORG
 10
0.0
 20
0.0
 30
0.0
  9
$UCSXDIR
 10
1.0
 20
0.0
 30
0.0
  9
$UCSYDIR
 10
0.0
 20
1.0
 30
0.0
  9
$UCSORTHOREF
  2

  9
$UCSORTHOVIEW
 70
     0
  9
$UCSORGTOP
 10
0.0
 20
0.0
 30
0.0
  9
$UCSORGBOTTOM
 10
0.0
 20
0.0
 30
0.0
  9
$UCSORGLEFT
 10
0.0
 20
0.0
 30
0.0
  9
$UCSORGRIGHT
 10
0.0
 20
0.0
 30
0.0
  9
$UCSORGFRONT
 10
0.0
 20
0.0
 30
0.0
  9
$UCSORGBACK
 10
0.0
 20
0.0
 30
0.0
  9
$PUCSBASE
  2

  9
$PUCSNAME
  2

  9
$PUCSORG
 10
0.0
 20
0.0
 30
0.0
  9
$PUCSXDIR
 10
1.0
 20
0.0
 30
0.0
  9
$PUCSYDIR
 10
0.0
 20
1.0
 30
0.0
  9
$PUCSORTHOREF
  2

  9
$PUCSORTHOVIEW
 70
     0
  9
$PUCSORGTOP
 10
0.0
 20
0.0
 30
0.0
  9
$PUCSORGBOTTOM
 10
0.0
 20
0.0
 30
0.0
  9
$PUCSORGLEFT
 10
0.0
 20
0.0
 30
0.0
  9
$PUCSORGRIGHT
 10
0.0
 20
0.0
 30
0.0
  9
$PUCSORGFRONT
 10
0.0
 20
0.0
 30
0.0
  9
$PUCSORGBACK
 10
0.0
 20
0.0
 30
0.0
  9
$USERI1
 70
     0
  9
$USERI2
 70
     0
  9
$USERI3
 70
     0
  9
$USERI4
 70
     0
  9
$USERI5
 70
     0
  9
$USERR1
 40
0.0
  9
$USERR2
 40
0.0
  9
$USERR3
 40
0.0
  9
$USERR4
 40
0.0
  9
$USERR5
 40
0.0
  9
$WORLDVIEW
 70
     1
  9
$SHADEDGE
 70
     3
  9
$SHADEDIF
 70
    70
  9
$TILEMODE
 70
     1
  9
$MAXACTVP
 70
    16
  9
$PINSBASE
 10
0.0
 20
0.0
 30
0.0
  9
$PLIMCHECK
 70
     0
  9
$PEXTMIN
 10
1.000000000000000E+20
 20
1.000000000000000E+20
 30
1.000000000000000E+20
  9
$PEXTMAX
 10
-1.000000000000000E+20
 20
-1.000000000000000E+20
 30
-1.000000000000000E+20
  9
$PLIMMIN
 10
0.0
 20
0.0
  9
$PLIMMAX
 10
420.0
 20
297.0
  9
$UNITMODE
 70
     0
  9
$VISRETAIN
 70
     0
  9
$PLINEGEN
 70
     0
  9
$PSLTSCALE
 70
     1
  9
$TREEDEPTH
 70
  3020
  9
$CMLSTYLE
  2
STANDARD
  9
$CMLJUST
 70
     0
  9
$CMLSCALE
 40
1.0
  9
$PROXYGRAPHICS
 70
     1
  9
$MEASUREMENT
 70
     1
  9
$CELWEIGHT
370
    -1
  9
$ENDCAPS
280
     0
  9
$JOINSTYLE
280
     0
  9
$LWDISPLAY
290
     0
  9
$INSUNITS
 70
     0
  9
$HYPERLINKBASE
  1

  9
$STYLESHEET
  1

  9
$XEDIT
290
     1
  9
$CEPSNTYPE
380
     0
  9
$PSTYLEMODE
290
     1
  9
$FINGERPRINTGUID
  2
{E36DAC4D-B83D-4831-9579-25BB11ABB169}
  9
$VERSIONGUID
  2
{1DE76571-A176-4D22-BF13-7422DAC5A675}
  9
$EXTNAMES
290
     1
  9
$PSVPSCALE
 40
0.0
  9
$OLESTARTUP
290
     0
  0
ENDSEC
  0
SECTION
  2
CLASSES
  0
CLASS
  1
ACDBDICTIONARYWDFLT
  2
AcDbDictionaryWithDefault
  3
ObjectDBX Classes
 90
        0
280
     0
281
     0
  0
CLASS
  1
MATERIAL
  2
AcDbMaterial
  3
ObjectDBX Classes
 90
     1153
280
     0
281
     0
  0
CLASS
  1
VISUALSTYLE
  2
AcDbVisualStyle
  3
ObjectDBX Classes
 90
     4095
280
     0
281
     0
  0
CLASS
  1
TABLESTYLE
  2
AcDbTableStyle
  3
ObjectDBX Classes
 90
     4095
280
     0
281
     0
  0
CLASS
  1
SCALE
  2
AcDbScale
  3
ObjectDBX Classes
 90
     1153
280
     0
281
     0
  0
CLASS
  1
MLEADERSTYLE
  2
AcDbMLeaderStyle
  3
ACDB_MLEADERSTYLE_CLASS
 90
     4095
280
     0
281
     0
  0
CLASS
  1
ACME_DOCUMENT
  2
AcMeDbDoc
  3
AcMeServices
 90
     1024
280
     0
281
     0
  0
CLASS
  1
AMGSETTINGSOBJ
  2
AmgSettingsObj
  3
"AcadM|Product Description: AutoCAD Mechanical|Company: Autodesk, Inc."
 90
     1024
280
     0
281
     0
  0
CLASS
  1
ACMESCOPE
  2
AcMeScope
  3
AcMeServices
 90
     1024
280
     0
281
     0
  0
CLASS
  1
ACMECOMMANDHISTORY
  2
AcMeCommandHistory
  3
AcMeServices
 90
     1024
280
     0
281
     0
  0
CLASS
  1
ACIMSYSVARMAN
  2
AcImSysVarManager
  3
AcMeServices
 90
     1024
280
     0
281
     0
  0
CLASS
  1
ACIMINTSYSVAR
  2
AcImIntSysVar
  3
AcMeServices
 90
     1024
280
     0
281
     0
  0
CLASS
  1
ACMEDRAWINGMAN
  2
AcMeDrawingMan
  3
AcMeServices
 90
     1024
280
     0
281
     0
  0
CLASS
  1
ACMEVIEW
  2
AcMeView
  3
AcMeServices
 90
     1024
280
     0
281
     0
  0
CLASS
  1
ACDBENTITYCACHE
  2
AcMeEntityCache
  3
AcMeServices
 90
     1024
280
     0
281
     0
  0
CLASS
  1
GSMANAGER
  2
AcMeGSManager
  3
AcMeServices
 90
     1024
280
     0
281
     0
  0
CLASS
  1
AMDTINTERNALREACTOR
  2
AmdtInternalReactor
  3
AcMeServices
 90
     1024
280
     0
281
     0
  0
CLASS
  1
ACMESTATEMGR
  2
AcMeStateMgr
  3
AcMeServices
 90
     1024
280
     0
281
     0
  0
CLASS
  1
ACGREFMASTER
  2
AcGrefMaster
  3
AcAttribServices
 90
     1024
280
     0
281
     0
  0
CLASS
  1
AM_DRAWING_MGR
  2
AcDmDwgMgr
  3
AcMechDwgViewMgmt
 90
     1024
280
     0
281
     0
  0
CLASS
  1
AM_DWG_DOCUMENT
  2
AcDmDwgDocument
  3
AcMechDwgViewMgmt
 90
     1024
280
     0
281
     0
  0
CLASS
  1
AM_DWG_SHEET
  2
AcDmSheet
  3
AcMechDwgViewMgmt
 90
     1024
280
     0
281
     0
  0
CLASS
  1
AM_VIEWDIMPARMAP
  2
AcDmViewDimParMap
  3
AcMechDwgViewMgmt
 90
     1024
280
     0
281
     0
  0
CLASS
  1
ACIMREALSYSVAR
  2
AcImRealSysVar
  3
AcMeServices
 90
     1024
280
     0
281
     0
  0
CLASS
  1
AM_DWGMGR_NAME
  2
AcDmDwgMgrName
  3
AcMechDwgViewMgmt
 90
     1024
280
     0
281
     0
  0
CLASS
  1
ACME_DATABASE
  2
AcMeDbDatabase
  3
AcMeServices
 90
     1024
280
     0
281
     0
  0
CLASS
  1
ACRFINSADJUSTERMGR
  2
AcRfInsAdjusterMgr
  3
AcMeServices
 90
     1024
280
     0
281
     0
  0
CLASS
  1
ACGREFACADMASTER
  2
AcGrefacadMaster
  3
AcGrefServices
 90
     1024
280
     0
281
     0
  0
CLASS
  1
AMDTMENUSTATEMGR
  2
AmdtMenuStateMgr
  3
McadcomServices
 90
     1024
280
     0
281
     0
  0
CLASS
  1
AMDTMCOMMENUSTATE
  2
AmdtMcomMenuState
  3
McadcomServices
 90
     1024
280
     0
281
     0
  0
CLASS
  1
AMIMASTER
  2
AmiMaster
  3
AmiServices
 90
     1024
280
     0
281
     0
  0
CLASS
  1
MAPIAMMOUDLE
  2
MApiAmModule
  3
MApiAmServices
 90
     1024
280
     0
281
     0
  0
CLASS
  1
ACIMSTRSYSVAR
  2
AcImStrSysVar
  3
AcMeServices
 90
     1024
280
     0
281
     0
  0
CLASS
  1
AMDTADMENUSTATE
  2
AmdtAdMenuState
  3
DesignerServices
 90
     1024
280
     0
281
     0
  0
CLASS
  1
ADAPPL
  2
AcAdAppl
  3
DesignerServices
 90
     1024
280
     0
281
     0
  0
CLASS
  1
DEPMGR
  2
AcAdDepMgr
  3
DesignerServices
 90
     1024
280
     0
281
     0
  0
CLASS
  1
PARAMMGR
  2
AcAdParamMgr
  3
DesignerServices
 90
     1024
280
     0
281
     0
  0
CLASS
  1
PARAMSCOPE
  2
AcAdParamScope
  3
DesignerServices
 90
     1024
280
     0
281
     0
  0
CLASS
  1
NAMEDAPPL
  2
AcAdNamedAppl
  3
DesignerServices
 90
     1024
280
     0
281
     0
  0
CLASS
  1
AMDTDMMENUSTATE
  2
AmdtDmMenuState
  3
AcMechDwgViewMgmt
 90
     1024
280
     0
281
     0
  0
CLASS
  1
AMDTAMMENUSTATE
  2
AmdtAmMenuState
  3
DesignerAssemblies
 90
     1024
280
     0
281
     0
  0
CLASS
  1
ACAMPROJECT
  2
AcAmProject
  3
DesignerAssemblies
 90
     1024
280
     0
281
     0
  0
CLASS
  1
ACAMGRCOMPDEF
  2
AcAmGrCompDef
  3
DesignerAssemblies
 90
     1024
280
     0
281
     0
  0
CLASS
  1
ACCMCONTEXT
  2
AcCmContext
  3
DesignerAssemblies
 90
     1024
280
     0
281
     0
  0
CLASS
  1
ACAMCOMPDEF
  2
AcAmCompDef
  3
DesignerAssemblies
 90
     1024
280
     0
281
     0
  0
CLASS
  1
ACAMCOMPDEFMGR
  2
AcAmCompDefMgr
  3
DesignerAssemblies
 90
     1024
280
     0
281
     0
  0
CLASS
  1
AMCONTEXTMGR
  2
AcAmContextMgr
  3
DesignerAssemblies
 90
     1024
280
     0
281
     0
  0
CLASS
  1
ACAMCONTEXTMODELER
  2
AcAmContextModeler
  3
DesignerAssemblies
 90
     1024
280
     0
281
     0
  0
CLASS
  1
ACMDATADICTIONARY
  2
AcmDataDictionary
  3
"AcmSymBB|Product Description: AutoCAD Mechanical|Company: Autodesk, Inc."
 90
     1024
280
     0
281
     0
  0
CLASS
  1
CATALOGSTATE
  2
AcAmCatalogState
  3
DesignerAssemblies
 90
     1024
280
     0
281
     0
  0
CLASS
  1
ACAMGRCOMPDEFSET
  2
AcAmGrCompDefSet
  3
DesignerAssemblies
 90
     1024
280
     0
281
     0
  0
CLASS
  1
AMDTBROWSERDBTAB
  2
AmdtBrowserDbTab
  3
McadcomServices
 90
     1024
280
     0
281
     0
  0
CLASS
  1
CBROWSERAPPOBJECT
  2
CBrowserAppObject
  3
McadcomServices
 90
     1024
280
     0
281
     0
  0
CLASS
  1
DM_PLACEHOLDER
  2
AcDmSelsetPlaceholder
  3
AcMechDwgViewMgmt
 90
     1024
280
     0
281
     0
  0
CLASS
  1
ACMSTANDARDDIN
  2
AcmStandardDIN
  3
"Amdt_StdImp|Product Description: AutoCAD Mechanical|Company: Autodesk, Inc."
 90
     1024
280
     0
281
     0
  0
CLASS
  1
AMDTEDGESTANDARDDIN13715
  2
AmdtEdgeStdDIN13715
  3
"Amdt_StdImp|Product Description: AutoCAD Mechanical|Company: Autodesk, Inc."
 90
     1024
280
     0
281
     0
  0
CLASS
  1
ACMSURFSTANDARDDIN2002
  2
AcmSurfTextStdDIN2002
  3
"Amdt_StdImp|Product Description: AutoCAD Mechanical|Company: Autodesk, Inc."
 90
     1024
280
     0
281
     0
  0
CLASS
  1
ACMFCFSTANDARDDIN
  2
AcmFCFStdDIN
  3
"Amdt_StdImp|Product Description: AutoCAD Mechanical|Company: Autodesk, Inc."
 90
     1024
280
     0
281
     0
  0
CLASS
  1
ACMWELDSTANDARDDIN
  2
AcmWeldingStdDIN
  3
"Amdt_StdImp|Product Description: AutoCAD Mechanical|Company: Autodesk, Inc."
 90
     1024
280
     0
281
     0
  0
CLASS
  1
ACMIDSTANDARDDIN
  2
AcmIdStdDIN
  3
"Amdt_StdImp|Product Description: AutoCAD Mechanical|Company: Autodesk, Inc."
 90
     1024
280
     0
281
     0
  0
CLASS
  1
ACMDATUMSTANDARDDIN
  2
AcmDatumStdDIN
  3
"Amdt_StdImp|Product Description: AutoCAD Mechanical|Company: Autodesk, Inc."
 90
     1024
280
     0
281
     0
  0
CLASS
  1
ACMBOMSTANDARDDIN
  2
AcmBOMStdDIN
  3
"Amdt_StdImp|Product Description: AutoCAD Mechanical|Company: Autodesk, Inc."
 90
     1024
280
     0
281
     0
  0
CLASS
  1
ACMDETAILSTANDARDDIN
  2
AmdtDetailSymStdDIN
  3
"Amdt_StdImp|Product Description: AutoCAD Mechanical|Company: Autodesk, Inc."
 90
     1024
280
     0
281
     0
  0
CLASS
  1
ACMSECTIONSTANDARDDIN
  2
AmdtSectionSymStdDIN
  3
"Amdt_StdImp|Product Description: AutoCAD Mechanical|Company: Autodesk, Inc."
 90
     1024
280
     0
281
     0
  0
CLASS
  1
ACMCENTERLINESTANDARDDIN
  2
AmdtCenterLineStdDIN
  3
"Amdt_StdImp|Product Description: AutoCAD Mechanical|Company: Autodesk, Inc."
 90
     1024
280
     0
281
     0
  0
CLASS
  1
ACMTHREADLINESTANDARDDIN
  2
AmdtThreadLineStdDIN
  3
"Amdt_StdImp|Product Description: AutoCAD Mechanical|Company: Autodesk, Inc."
 90
     1024
280
     0
281
     0
  0
CLASS
  1
ACMNOTESTANDARDDIN
  2
AmdtNoteStdDIN
  3
"Amdt_StdImp|Product Description: AutoCAD Mechanical|Company: Autodesk, Inc."
 90
     1024
280
     0
281
     0
  0
CLASS
  1
ACMTAPERSTANDARDDIN
  2
AcmTaperStdDIN
  3
"Amdt_StdImp|Product Description: AutoCAD Mechanical|Company: Autodesk, Inc."
 90
     1024
280
     0
281
     0
  0
CLASS
  1
ACMANOOTATIONVIEWSTANDARDDIN
  2
AmdtAnViewStdDIN
  3
"Amdt_StdImp|Product Description: AutoCAD Mechanical|Company: Autodesk, Inc."
 90
     1024
280
     0
281
     0
  0
CLASS
  1
ACAMGLAYSTD
  2
AcAmgLayStd
  3
"AmgLay|Product Description: AutoCAD Mechanical|Company: Autodesk, Inc."
 90
     1024
280
     0
281
     0
  0
CLASS
  1
ACAMGDIMSTD
  2
AcAmgDimStd
  3
"AmgDim|Product Description: AutoCAD Mechanical|Company: Autodesk, Inc."
 90
     1024
280
     0
281
     0
  0
CLASS
  1
AMGOBJPROPCFG
  2
AmgObjPropCfg
  3
"AmgLay|Product Description: AutoCAD Mechanical|Company: Autodesk, Inc."
 90
     1025
280
     0
281
     0
  0
CLASS
  1
ACAMGHOLECHARTSTDDIN
  2
AcAmgHoleChartStdDIN
  3
AmgDim|Product Description: AutoCAD Mechanical|Company: Autodesk, Inc.
 90
     1024
280
     0
281
     0
  0
CLASS
  1
ACAMGTITLESTD
  2
AcAmgTitleStd
  3
"AmgTitle|Product Description: AutoCAD Mechanical|Company: Autodesk, Inc."
 90
     4095
280
     0
281
     0
  0
CLASS
  1
AMDTNOTETEMPLATEDB
  2
AmdtNoteTemplateDB
  3
AcmSymBB|Product Description: AutoCAD Mechanical|Company: Autodesk, Inc.
 90
     1024
280
     0
281
     0
  0
CLASS
  1
ACAMGFILTERDAT
  2
AcAmgFilterDat
  3
"AcadM|Product Description: AutoCAD Mechanical|Company: Autodesk, Inc."
 90
     1024
280
     0
281
     0
  0
CLASS
  1
DICTIONARYVAR
  2
AcDbDictionaryVar
  3
ObjectDBX Classes
 90
        0
280
     0
281
     0
  0
CLASS
  1
CELLSTYLEMAP
  2
AcDbCellStyleMap
  3
ObjectDBX Classes
 90
     1152
280
     0
281
     0
  0
CLASS
  1
ACDBPLACEHOLDER
  2
AcDbPlaceHolder
  3
ObjectDBX Classes
 90
        0
280
     0
281
     0
  0
CLASS
  1
LAYOUT
  2
AcDbLayout
  3
ObjectDBX Classes
 90
        0
280
     0
281
     0
  0
ENDSEC
  0
SECTION
  2
TABLES
  0
TABLE
  2
VPORT
  5
8
330
0
100
AcDbSymbolTable
 70
     1
  0
VPORT
  5
1AD9
330
8
100
AcDbSymbolTableRecord
100
AcDbViewportTableRecord
  2
*ACTIVE
 70
     0
 10
0.0
 20
0.0
 11
1.0
 21
1.0
 12
344.428442593168
 22
203.9551051768874
 13
0.0
 23
0.0
 14
1.0
 24
1.0
 15
10.0
 25
10.0
 16
0.0
 26
0.0
 36
1.0
 17
0.0
 27
0.0
 37
0.0
 40
438.9356098836923
 41
1.548186528497409
 42
50.0
 43
0.0
 44
0.0
 50
0.0
 51
0.0
 71
     0
 72
   100
 73
     1
 74
     0
 75
     0
 76
     0
 77
     0
 78
     0
281
     0
 65
     1
110
0.0
120
0.0
130
0.0
111
1.0
121
0.0
131
0.0
112
0.0
122
1.0
132
0.0
 79
     0
146
0.0
  0
ENDTAB
  0
TABLE
  2
LTYPE
  5
5
330
0
100
AcDbSymbolTable
 70
    21
  0
LTYPE
  5
12
330
5
100
AcDbSymbolTableRecord
100
AcDbLinetypeTableRecord
  2
BYBLOCK
 70
     0
  3

 72
    65
 73
     0
 40
0.0
  0
LTYPE
  5
13
330
5
100
AcDbSymbolTableRecord
100
AcDbLinetypeTableRecord
  2
BYLAYER
 70
     0
  3

 72
    65
 73
     0
 40
0.0
  0
LTYPE
  5
14
330
5
100
AcDbSymbolTableRecord
100
AcDbLinetypeTableRecord
  2
CONTINUOUS
 70
     0
  3
Solid line
 72
    65
 73
     0
 40
0.0
  0
LTYPE
  5
1E
330
5
100
AcDbSymbolTableRecord
100
AcDbLinetypeTableRecord
  2
GEN3A
 70
     0
  3
 - - - - -
 72
    65
 73
     2
 40
3.1
 49
2.5
 74
     0
 49
-0.6
 74
     0
  0
LTYPE
  5
20
330
5
100
AcDbSymbolTableRecord
100
AcDbLinetypeTableRecord
  2
GEN7A
 70
     0
  3
__ . __ . __
 72
    65
 73
     4
 40
7.5
 49
5.0
 74
     0
 49
-1.25
 74
     0
 49
0.0
 74
     0
 49
-1.25
 74
     0
  0
LTYPE
  5
1B58
330
5
100
AcDbSymbolTableRecord
100
AcDbLinetypeTableRecord
  2
HIDDEN
 70
     0
  3
Verdeckt
 72
    65
 73
     2
 40
9.525
 49
6.349999999999999
 74
     0
 49
-3.174999999999999
 74
     0
  0
LTYPE
  5
1B59
330
5
100
AcDbSymbolTableRecord
100
AcDbLinetypeTableRecord
  2
PHANTOM2
 70
     0
  3
Phantom (.5x) ___ _ _ ___ _ _ ___ _ _ ___ _ _
 72
    65
 73
     6
 40
31.75
 49
15.875
 74
     0
 49
-3.174999999999999
 74
     0
 49
3.174999999999999
 74
     0
 49
-3.174999999999999
 74
     0
 49
3.174999999999999
 74
     0
 49
-3.174999999999999
 74
     0
  0
LTYPE
  5
1B5A
330
5
100
AcDbSymbolTableRecord
100
AcDbLinetypeTableRecord
  2
CENTER
 70
     0
  3
Mitte ____ _ ____ _ ____ _ ____ _ ____ _ ____
 72
    65
 73
     4
 40
50.8
 49
31.75
 74
     0
 49
-6.349999999999999
 74
     0
 49
6.349999999999999
 74
     0
 49
-6.349999999999999
 74
     0
  0
LTYPE
  5
1BA0
330
5
100
AcDbSymbolTableRecord
100
AcDbLinetypeTableRecord
  2
AM_ISO02W050
 70
     0
  3
__ __ __ __ __ __ __ __ __ __ __ __ __ __ __
 72
    65
 73
     2
 40
7.5
 49
6.0
 74
     0
 49
-1.5
 74
     0
  0
LTYPE
  5
1BA1
330
5
100
AcDbSymbolTableRecord
100
AcDbLinetypeTableRecord
  2
AM_ISO08W050
 70
     0
  3
____ . ____ . ____ . ____ . ____ . ____ . ____
 72
    65
 73
     4
 40
18.0
 49
12.0
 74
     0
 49
-1.5
 74
     0
 49
3.0
 74
     0
 49
-1.5
 74
     0
  0
LTYPE
  5
1BA2
330
5
100
AcDbSymbolTableRecord
100
AcDbLinetypeTableRecord
  2
AM_ISO09W050
 70
     0
  3
_____ . . _____ . . _____ . . ____ .. ____
 72
    65
 73
     6
 40
22.5
 49
12.0
 74
     0
 49
-1.5
 74
     0
 49
3.0
 74
     0
 49
-1.5
 74
     0
 49
3.0
 74
     0
 49
-1.5
 74
     0
  0
LTYPE
  5
1BA3
330
5
100
AcDbSymbolTableRecord
100
AcDbLinetypeTableRecord
  2
Amconstr
 70
     0
  3
_______________________
 72
    65
 73
     2
 40
9999.0
 49
9999.0
 74
     0
 49
0.0
 74
     0
  0
LTYPE
  5
1BA4
330
5
100
AcDbSymbolTableRecord
100
AcDbLinetypeTableRecord
  2
AM_ISO08W050x2
 70
     0
  3
__ . __ . __ . __ . __ . __
 72
    65
 73
     4
 40
9.0
 49
6.0
 74
     0
 49
-0.75
 74
     0
 49
1.5
 74
     0
 49
-0.75
 74
     0
  0
LTYPE
  5
1BA5
330
5
100
AcDbSymbolTableRecord
100
AcDbLinetypeTableRecord
  2
AM_ISO02W050x2
 70
     0
  3
 _ _ _ _ _ _ _ _ _ _ _ _
 72
    65
 73
     2
 40
3.75
 49
3.0
 74
     0
 49
-0.75
 74
     0
  0
LTYPE
  5
1BA8
330
5
100
AcDbSymbolTableRecord
100
AcDbLinetypeTableRecord
  2
Amzigzag
 70
     0
  3
/\/-/\/-/\/-/\/-/\/-/\/
 72
    65
 73
     2
 40
11.0001
 49
0.0001
 74
     4
 75
   136
340
1BA7
 46
0.04
 50
0.0
 44
0.0
 45
0.0
 49
-11.0
 74
     0
  0
LTYPE
  5
1BA9
330
5
100
AcDbSymbolTableRecord
100
AcDbLinetypeTableRecord
  2
AM_DIN_F_W050
 70
     0
  3
__ __ __ __ __ __ __ __ __ __ __ __ __ __ __
 72
    65
 73
     2
 40
6.25
 49
4.75
 74
     0
 49
-1.5
 74
     0
  0
LTYPE
  5
1BAA
330
5
100
AcDbSymbolTableRecord
100
AcDbLinetypeTableRecord
  2
AM_DIN_G_W050
 70
     0
  3
____ . ____ . ____ . ____ . ____ . ____ . ____
 72
    65
 73
     4
 40
13.75
 49
9.75
 74
     0
 49
-1.5
 74
     0
 49
1.0
 74
     0
 49
-1.5
 74
     0
  0
LTYPE
  5
1BAB
330
5
100
AcDbSymbolTableRecord
100
AcDbLinetypeTableRecord
  2
AM_DIN_K_W050
 70
     0
  3
_____ . . _____ . . _____ . . ____ .. ____
 72
    65
 73
     6
 40
16.25
 49
9.75
 74
     0
 49
-1.5
 74
     0
 49
1.0
 74
     0
 49
-1.5
 74
     0
 49
1.0
 74
     0
 49
-1.5
 74
     0
  0
LTYPE
  5
1BAC
330
5
100
AcDbSymbolTableRecord
100
AcDbLinetypeTableRecord
  2
AM_DIN_G_W050x2
 70
     0
  3
__ . __ . __ . __ . __ . __
 72
    65
 73
     4
 40
6.875
 49
4.75
 74
     0
 49
-0.875
 74
     0
 49
0.375
 74
     0
 49
-0.875
 74
     0
  0
LTYPE
  5
1BAD
330
5
100
AcDbSymbolTableRecord
100
AcDbLinetypeTableRecord
  2
AM_DIN_F_W050x2
 70
     0
  3
 _ _ _ _ _ _ _ _ _ _ _ _
 72
    65
 73
     2
 40
3.125
 49
2.25
 74
     0
 49
-0.875
 74
     0
  0
LTYPE
  5
1BBC
330
5
100
AcDbSymbolTableRecord
100
AcDbLinetypeTableRecord
  2
ACDINWELD
 70
     0
  3
_ _ _ _ _
 72
    65
 73
     2
 40
2.0
 49
2.0
 74
     0
 49
-1.0
 74
     0
  0
LTYPE
  5
1BBD
330
5
100
AcDbSymbolTableRecord
100
AcDbLinetypeTableRecord
  2
ACDINTGB
 70
     0
  3
__ . . __ . .
 72
    65
 73
     6
 40
9.0
 49
4.0
 74
     0
 49
-1.0
 74
     0
 49
1.0
 74
     0
 49
-1.0
 74
     0
 49
1.0
 74
     0
 49
-1.0
 74
     0
  0
LTYPE
  5
1BBE
330
5
100
AcDbSymbolTableRecord
100
AcDbLinetypeTableRecord
  2
ACDINTGL
 70
     0
  3
_ _ _ _ _
 72
    65
 73
     2
 40
3.0
 49
2.0
 74
     0
 49
-1.0
 74
     0
  0
ENDTAB
  0
TABLE
  2
LAYER
  5
2
330
0
100
AcDbSymbolTable
 70
     7
  0
LAYER
  5
F
102
{ACAD_XDICTIONARY
360
1BC5
102
}
330
2
100
AcDbSymbolTableRecord
100
AcDbLayerTableRecord
  2
0
 70
     0
 62
     7
  6
CONTINUOUS
370
    -3
390
1ADC
  0
LAYER
  5
1125
102
{ACAD_XDICTIONARY
360
1BC7
102
}
330
2
100
AcDbSymbolTableRecord
100
AcDbLayerTableRecord
  2
MSL-90-S16-S-0
 70
     0
 62
     7
  6
CONTINUOUS
370
    -3
390
1ADC
  0
LAYER
  5
1126
102
{ACAD_XDICTIONARY
360
1BC9
102
}
330
2
100
AcDbSymbolTableRecord
100
AcDbLayerTableRecord
  2
MSL-90-S16-S-3A
 70
     0
 62
     6
  6
GEN3A
370
    -3
390
1ADC
  0
LAYER
  5
1127
102
{ACAD_XDICTIONARY
360
1BCB
102
}
330
2
100
AcDbSymbolTableRecord
100
AcDbLayerTableRecord
  2
MSL-90-S16-S-5
 70
     0
 62
     3
  6
CONTINUOUS
370
    -3
390
1ADC
  0
LAYER
  5
1128
102
{ACAD_XDICTIONARY
360
1BCD
102
}
330
2
100
AcDbSymbolTableRecord
100
AcDbLayerTableRecord
  2
MSL-90-S16-S-7A
 70
     0
 62
     4
  6
GEN7A
370
    -3
390
1ADC
  0
LAYER
  5
1AB9
102
{ACAD_XDICTIONARY
360
1BCF
102
}
330
2
100
AcDbSymbolTableRecord
100
AcDbLayerTableRecord
  2
MSL-90-S16-S-6
 70
     0
 62
     2
  6
GEN7A
370
    -3
390
1ADC
  0
LAYER
  5
1ACE
330
2
100
AcDbSymbolTableRecord
100
AcDbLayerTableRecord
  2
DEFPOINTS
 70
     0
 62
     7
  6
CONTINUOUS
290
     0
370
    -3
390
1ADC
  0
ENDTAB
  0
TABLE
  2
STYLE
  5
3
330
0
100
AcDbSymbolTable
 70
     4
  0
STYLE
  5
10
330
3
100
AcDbSymbolTableRecord
100
AcDbTextStyleTableRecord
  2
STANDARD
 70
     0
 40
0.0
 41
1.0
 50
0.0
 71
     0
 42
3.5
  3
ISOCP.SHX
  4

  0
STYLE
  5
1BA7
330
3
100
AcDbSymbolTableRecord
100
AcDbTextStyleTableRecord
  2

 70
     1
 40
0.0
 41
1.0
 50
0.0
 71
     0
 42
3.5
  3
genltshp.shx
  4

  0
STYLE
  5
1BBA
330
3
100
AcDbSymbolTableRecord
100
AcDbTextStyleTableRecord
  2
ACDINTS
 70
     0
 40
1.0
 41
1.0
 50
0.0
 71
     0
 42
3.5
  3
isocp.shx
  4

  0
STYLE
  5
1BBB
330
3
100
AcDbSymbolTableRecord
100
AcDbTextStyleTableRecord
  2
ACDINGDT
 70
     0
 40
0.0
 41
1.0
 50
0.0
 71
     0
 42
3.5
  3
amgdt.shx
  4

  0
ENDTAB
  0
TABLE
  2
VIEW
  5
6
330
0
100
AcDbSymbolTable
 70
     0
  0
ENDTAB
  0
TABLE
  2
UCS
  5
7
330
0
100
AcDbSymbolTable
 70
     0
  0
ENDTAB
  0
TABLE
  2
APPID
  5
9
330
0
100
AcDbSymbolTable
 70
    15
  0
APPID
  5
11
330
9
100
AcDbSymbolTableRecord
100
AcDbRegAppTableRecord
  2
ACAD
 70
     0
  0
APPID
  5
1110
330
9
100
AcDbSymbolTableRecord
100
AcDbRegAppTableRecord
  2
CONTENTBLOCKICON
 70
     0
  0
APPID
  5
1111
330
9
100
AcDbSymbolTableRecord
100
AcDbRegAppTableRecord
  2
CONTENTBLOCKDESCRIPTION
 70
     0
  0
APPID
  5
1B1E
330
9
100
AcDbSymbolTableRecord
100
AcDbRegAppTableRecord
  2
ACAD_MLEADERVER
 70
     0
  0
APPID
  5
1B2B
330
9
100
AcDbSymbolTableRecord
100
AcDbRegAppTableRecord
  2
MCAD_NO_VIS
 70
     0
  0
APPID
  5
1B2C
330
9
100
AcDbSymbolTableRecord
100
AcDbRegAppTableRecord
  2
ACAD_TEMP_GRAPHIC
 70
     0
  0
APPID
  5
1B5C
330
9
100
AcDbSymbolTableRecord
100
AcDbRegAppTableRecord
  2
AD_DRAW
 70
     0
  0
APPID
  5
1B5F
330
9
100
AcDbSymbolTableRecord
100
AcDbRegAppTableRecord
  2
ACATTRIBSERVICES
 70
     0
  0
APPID
  5
1B80
330
9
100
AcDbSymbolTableRecord
100
AcDbRegAppTableRecord
  2
DESIGNERASSEMBLIES
 70
     0
  0
APPID
  5
1B86
330
9
100
AcDbSymbolTableRecord
100
AcDbRegAppTableRecord
  2
ACADM_DIM_EDIT
 70
     0
  0
APPID
  5
1B87
330
9
100
AcDbSymbolTableRecord
100
AcDbRegAppTableRecord
  2
AMDT_DM_ADJ
 70
     0
  0
APPID
  5
1BEB
330
9
100
AcDbSymbolTableRecord
100
AcDbRegAppTableRecord
  2
ACAD_DSTYLE_DIMJOGGED_JOGANGLE_SYMBOL
 70
     0
  0
APPID
  5
1BEC
330
9
100
AcDbSymbolTableRecord
100
AcDbRegAppTableRecord
  2
ACAD_DSTYLE_DIM_LINETYPE
 70
     0
  0
APPID
  5
1BED
330
9
100
AcDbSymbolTableRecord
100
AcDbRegAppTableRecord
  2
ACAD_DSTYLE_DIM_EXT1_LINETYPE
 70
     0
  0
APPID
  5
1BEE
330
9
100
AcDbSymbolTableRecord
100
AcDbRegAppTableRecord
  2
ACAD_DSTYLE_DIM_EXT2_LINETYPE
 70
     0
  0
ENDTAB
  0
TABLE
  2
DIMSTYLE
  5
A
330
0
100
AcDbSymbolTable
 70
     8
100
AcDbDimStyleTable
 71
     0
  0
DIMSTYLE
105
24
102
{ACAD_REACTORS
330
1AD3
102
}
330
A
100
AcDbSymbolTableRecord
100
AcDbDimStyleTableRecord
  2
GEN-ISO
 70
     0
 41
2.5
 42
1.0
 43
10.0
 44
2.0
 47
0.1
 48
0.1
 73
     0
 74
     0
 77
     1
 78
     8
140
3.5
141
-2.0
147
1.5
172
     1
178
     2
271
     2
272
     5
283
     0
284
     8
285
     8
286
     8
340
10
  0
DIMSTYLE
105
1B9E
102
{ACAD_REACTORS
330
1B8D
102
}
330
A
100
AcDbSymbolTableRecord
100
AcDbDimStyleTableRecord
  2
AM_DIN
 70
     0
  4
"
 41
3.5
 42
1.0
 43
10.0
 44
1.0
 47
0.1
 48
0.1
 73
     0
 74
     0
 77
     1
 78
     8
 79
     2
140
3.5
141
0.0
143
0.0393701
146
0.71
147
1.5
172
     1
176
   256
177
   256
178
     2
271
     2
272
     3
274
     4
283
     0
284
     8
340
10
371
    -1
372
    -1
1001
ACAD_DSTYLE_DIMJOGGED_JOGANGLE_SYMBOL
1070
   384
1040
1.570796326794896
1001
ACAD_DSTYLE_DIM_LINETYPE
1070
   380
1005
12
1001
ACAD_DSTYLE_DIM_EXT1_LINETYPE
1070
   381
1005
12
1001
ACAD_DSTYLE_DIM_EXT2_LINETYPE
1070
   382
1005
12
  0
DIMSTYLE
105
1BAE
330
A
100
AcDbSymbolTableRecord
100
AcDbDimStyleTableRecord
  2
AM_DIN$3
 70
     0
  4
"
 41
3.5
 42
1.0
 43
10.0
 44
1.0
 47
0.1
 48
0.1
 73
     0
 77
     1
 78
     8
 79
     2
140
3.5
141
0.0
143
0.0393701
146
0.71
147
1.5
176
   256
177
   256
178
     2
271
     2
272
     3
274
     4
283
     0
284
     8
288
     1
289
     0
340
10
371
    -1
372
    -1
1001
ACAD_DSTYLE_DIMJOGGED_JOGANGLE_SYMBOL
1070
   384
1040
1.570796326794896
1001
ACAD_DSTYLE_DIM_LINETYPE
1070
   380
1005
12
1001
ACAD_DSTYLE_DIM_EXT1_LINETYPE
1070
   381
1005
12
1001
ACAD_DSTYLE_DIM_EXT2_LINETYPE
1070
   382
1005
12
  0
DIMSTYLE
105
1BAF
330
A
100
AcDbSymbolTableRecord
100
AcDbDimStyleTableRecord
  2
AM_DIN$4
 70
     0
  4
"
 41
3.5
 42
1.0
 43
10.0
 44
1.0
 47
0.1
 48
0.1
 73
     0
 77
     1
 78
     8
 79
     2
140
3.5
141
0.0
143
0.0393701
146
0.71
147
1.5
176
   256
177
   256
178
     2
271
     2
272
     3
274
     4
283
     0
284
     8
288
     1
289
     0
340
10
371
    -1
372
    -1
1001
ACAD_DSTYLE_DIMJOGGED_JOGANGLE_SYMBOL
1070
   384
1040
1.570796326794896
1001
ACAD_DSTYLE_DIM_LINETYPE
1070
   380
1005
12
1001
ACAD_DSTYLE_DIM_EXT1_LINETYPE
1070
   381
1005
12
1001
ACAD_DSTYLE_DIM_EXT2_LINETYPE
1070
   382
1005
12
  0
DIMSTYLE
105
1BB0
330
A
100
AcDbSymbolTableRecord
100
AcDbDimStyleTableRecord
  2
AM_DIN$6
 70
     0
  4
"
 41
3.5
 42
1.0
 43
10.0
 44
1.0
 47
0.1
 48
0.1
 73
     0
 74
     0
 78
     8
 79
     2
140
3.5
141
0.0
143
0.0393701
146
0.71
147
1.5
172
     1
176
   256
177
   256
178
     2
271
     2
272
     3
274
     4
283
     0
284
     8
340
10
371
    -1
372
    -1
1001
ACAD_DSTYLE_DIMJOGGED_JOGANGLE_SYMBOL
1070
   384
1040
1.570796326794896
1001
ACAD_DSTYLE_DIM_LINETYPE
1070
   380
1005
12
1001
ACAD_DSTYLE_DIM_EXT1_LINETYPE
1070
   381
1005
12
1001
ACAD_DSTYLE_DIM_EXT2_LINETYPE
1070
   382
1005
12
  0
DIMSTYLE
105
1BB1
330
A
100
AcDbSymbolTableRecord
100
AcDbDimStyleTableRecord
  2
AM_DIN$7
 70
     0
  4
"
 41
3.5
 42
1.0
 43
10.0
 44
1.0
 47
0.1
 48
0.1
 73
     0
 74
     0
 77
     1
 78
     8
 79
     2
140
3.5
141
0.0
143
0.0393701
146
0.71
147
1.5
172
     1
176
   256
177
   256
178
     2
271
     2
272
     3
274
     4
283
     0
284
     8
340
10
371
    -1
372
    -1
1001
ACAD_DSTYLE_DIMJOGGED_JOGANGLE_SYMBOL
1070
   384
1040
1.570796326794896
1001
ACAD_DSTYLE_DIM_LINETYPE
1070
   380
1005
12
1001
ACAD_DSTYLE_DIM_EXT1_LINETYPE
1070
   381
1005
12
1001
ACAD_DSTYLE_DIM_EXT2_LINETYPE
1070
   382
1005
12
  0
DIMSTYLE
105
1BB2
330
A
100
AcDbSymbolTableRecord
100
AcDbDimStyleTableRecord
  2
AM_DIN$SF
 70
     0
  4
"
 41
3.5
 42
1.0
 43
10.0
 44
1.0
 47
0.1
 48
0.1
 73
     0
 74
     0
 75
     1
 76
     1
 77
     1
 78
     8
 79
     2
140
3.5
141
0.0
143
0.0393701
146
0.71
147
1.5
172
     1
176
   256
177
   256
178
     2
271
     2
272
     3
274
     4
283
     0
284
     8
340
10
371
    -1
372
    -1
1001
ACAD_DSTYLE_DIMJOGGED_JOGANGLE_SYMBOL
1070
   384
1040
1.570796326794896
1001
ACAD_DSTYLE_DIM_LINETYPE
1070
   380
1005
12
1001
ACAD_DSTYLE_DIM_EXT1_LINETYPE
1070
   381
1005
12
1001
ACAD_DSTYLE_DIM_EXT2_LINETYPE
1070
   382
1005
12
  0
DIMSTYLE
105
1BB7
330
A
100
AcDbSymbolTableRecord
100
AcDbDimStyleTableRecord
  2
AM_DIN$SH
 70
     0
  4
"
 41
3.5
 42
1.0
 43
10.0
 44
1.0
 47
0.1
 48
0.1
 73
     0
 74
     0
 75
     1
 76
     1
 77
     1
 78
     8
 79
     2
140
3.5
141
0.0
143
0.0393701
144
2.0
146
0.71
147
1.5
172
     1
173
     1
176
   256
177
   256
178
     2
271
     2
272
     3
274
     4
283
     0
284
     8
340
10
343
1BB3
371
    -1
372
    -1
1001
ACAD_DSTYLE_DIMJOGGED_JOGANGLE_SYMBOL
1070
   384
1040
1.570796326794896
1001
ACAD_DSTYLE_DIM_LINETYPE
1070
   380
1005
12
1001
ACAD_DSTYLE_DIM_EXT1_LINETYPE
1070
   381
1005
12
1001
ACAD_DSTYLE_DIM_EXT2_LINETYPE
1070
   382
1005
12
  0
ENDTAB
  0
TABLE
  2
BLOCK_RECORD
  5
1
330
0
100
AcDbSymbolTable
 70
     3
  0
BLOCK_RECORD
  5
18
330
1
100
AcDbSymbolTableRecord
100
AcDbBlockTableRecord
  2
*MODEL_SPACE
340
1B21
  0
BLOCK_RECORD
  5
15
330
1
100
AcDbSymbolTableRecord
100
AcDbBlockTableRecord
  2
*PAPER_SPACE
340
1B22
  0
BLOCK_RECORD
  5
1AC6
330
1
100
AcDbSymbolTableRecord
100
AcDbBlockTableRecord
  2
*D0
340
0
  0
BLOCK_RECORD
  5
1BB3
330
1
100
AcDbSymbolTableRecord
100
AcDbBlockTableRecord
  2
GENAXEH
340
0
  0
ENDTAB
  0
ENDSEC
  0
SECTION
  2
BLOCKS
  0
BLOCK
  5
44
330
18
100
AcDbEntity
  8
0
100
AcDbBlockBegin
  2
*MODEL_SPACE
 70
     0
 10
0.0
 20
0.0
 30
0.0
  3
*MODEL_SPACE
  1

  0
ENDBLK
  5
45
330
18
100
AcDbEntity
  8
0
100
AcDbBlockEnd
  0
BLOCK
  5
42
330
15
100
AcDbEntity
 67
     1
  8
0
100
AcDbBlockBegin
  2
*PAPER_SPACE
 70
     0
 10
0.0
 20
0.0
 30
0.0
  3
*PAPER_SPACE
  1

  0
ENDBLK
  5
43
330
15
100
AcDbEntity
 67
     1
  8
0
100
AcDbBlockEnd
  0
BLOCK
  5
1AC7
330
1AC6
100
AcDbEntity
  8
0
100
AcDbBlockBegin
  2
*D0
 70
     1
 10
0.0
 20
0.0
 30
0.0
  3
*D0
  1

  0
LINE
  5
1AC8
330
1AC6
100
AcDbEntity
  8
0
  6
ByBlock
 62
     0
100
AcDbLine
 10
91.05539599833686
 20
204.9648939902214
 30
0.0
 11
91.05539599833686
 21
186.2480089157752
 31
0.0
  0
LINE
  5
1AC9
330
1AC6
100
AcDbEntity
  8
0
  6
ByBlock
 62
     0
100
AcDbLine
 10
411.0553959983369
 20
204.9648939902212
 30
0.0
 11
411.0553959983369
 21
186.2480089157752
 31
0.0
  0
LINE
  5
1ACA
330
1AC6
100
AcDbEntity
  8
0
  6
ByBlock
 62
     0
100
AcDbLine
 10
93.55539599833686
 20
188.2480089157752
 30
0.0
 11
408.555395998337
 21
188.2480089157752
 31
0.0
  0
SOLID
  5
1ACB
330
1AC6
100
AcDbEntity
  8
0
  6
ByBlock
 62
     0
100
AcDbTrace
 10
93.55539599833686
 20
188.6646755824418
 30
0.0
 11
93.55539599833686
 21
187.8313422491085
 31
0.0
 12
91.05539599833686
 22
188.2480089157752
 32
0.0
 13
91.05539599833686
 23
188.2480089157752
 33
0.0
  0
SOLID
  5
1ACC
330
1AC6
100
AcDbEntity
  8
0
  6
ByBlock
 62
     0
100
AcDbTrace
 10
408.555395998337
 20
188.6646755824418
 30
0.0
 11
408.555395998337
 21
187.8313422491085
 31
0.0
 12
411.0553959983369
 22
188.2480089157752
 32
0.0
 13
411.0553959983369
 23
188.2480089157752
 33
0.0
  0
MTEXT
  5
1ACD
330
1AC6
100
AcDbEntity
  8
0
  6
ByBlock
 62
     2
100
AcDbMText
 10
251.0553959983369
 20
191.4983534039641
 30
0.0
 40
3.5
 41
0.0
 71
     5
 72
     1
  1
320
 73
     1
 44
1.0
1001
ACAD
1000
MTEXTBEGIN
1070
    73
1070
     1
1070
    44
1040
1.0
1070
    74
1070
     0
1000
MTEXTEND
  0
POINT
  5
1ACF
330
1AC6
100
AcDbEntity
  8
DEFPOINTS
  6
ByBlock
 62
     0
100
AcDbPoint
 10
91.05539599833686
 20
205.9648939902213
 30
0.0
  0
POINT
  5
1AD0
330
1AC6
100
AcDbEntity
  8
DEFPOINTS
  6
ByBlock
 62
     0
100
AcDbPoint
 10
411.0553959983369
 20
205.9648939902212
 30
0.0
  0
POINT
  5
1AD1
330
1AC6
100
AcDbEntity
  8
DEFPOINTS
  6
ByBlock
 62
     0
100
AcDbPoint
 10
411.0553959983369
 20
188.2480089157752
 30
0.0
  0
ENDBLK
  5
1AD2
330
1AC6
100
AcDbEntity
  8
0
100
AcDbBlockEnd
  0
BLOCK
  5
1BB5
330
1BB3
100
AcDbEntity
  8
0
100
AcDbBlockBegin
  2
GENAXEH
 70
     0
 10
0.0
 20
0.0
 30
0.0
  3
GENAXEH
  1

  0
LINE
  5
1BB4
330
1BB3
100
AcDbEntity
  8
0
100
AcDbLine
 10
-1.0
 20
0.0
 30
0.0
 11
1.0
 21
0.0
 31
0.0
  0
ENDBLK
  5
1BB6
330
1BB3
100
AcDbEntity
  8
0
100
AcDbBlockEnd
  0
ENDSEC
  0
SECTION
  2
ENTITIES
  0
LINE
  5
A07
330
18
100
AcDbEntity
  8
MSL-90-S16-S-0
370
     0
100
AcDbLine
 10
276.4354670418909
 20
175.0094137621731
 30
0.0
 11
426.4354670418908
 21
175.0094137621732
 31
0.0
  0
CIRCLE
  5
A08
330
18
100
AcDbEntity
  8
MSL-90-S16-S-0
370
     0
100
AcDbCircle
 10
373.9354670418909
 20
155.0094137621732
 30
0.0
 40
2.5
  0
CIRCLE
  5
A09
330
18
100
AcDbEntity
  8
MSL-90-S16-S-0
370
     0
100
AcDbCircle
 10
328.935467041891
 20
95.00941376217316
 30
0.0
 40
2.5
  0
CIRCLE
  5
A0A
330
18
100
AcDbEntity
  8
MSL-90-S16-S-0
370
     0
100
AcDbCircle
 10
306.4354670418909
 20
95.00941376217312
 30
0.0
 40
2.5
  0
CIRCLE
  5
A0B
330
18
100
AcDbEntity
  8
MSL-90-S16-S-0
370
     0
100
AcDbCircle
 10
351.435467041891
 20
95.00941376217316
 30
0.0
 40
2.5
  0
CIRCLE
  5
A0C
330
18
100
AcDbEntity
  8
MSL-90-S16-S-0
370
     0
100
AcDbCircle
 10
373.9354670418909
 20
95.00941376217317
 30
0.0
 40
2.5
  0
CIRCLE
  5
A0D
330
18
100
AcDbEntity
  8
MSL-90-S16-S-0
370
     0
100
AcDbCircle
 10
396.4354670418909
 20
95.00941376217321
 30
0.0
 40
2.5
  0
CIRCLE
  5
A0E
330
18
100
AcDbEntity
  8
MSL-90-S16-S-0
370
     0
100
AcDbCircle
 10
306.4354670418909
 20
155.0094137621731
 30
0.0
 40
2.5
  0
CIRCLE
  5
A0F
330
18
100
AcDbEntity
  8
MSL-90-S16-S-0
370
     0
100
AcDbCircle
 10
351.4354670418909
 20
155.0094137621731
 30
0.0
 40
2.5
  0
CIRCLE
  5
A10
330
18
100
AcDbEntity
  8
MSL-90-S16-S-0
370
     0
100
AcDbCircle
 10
396.4354670418909
 20
155.0094137621732
 30
0.0
 40
2.5
  0
CIRCLE
  5
A11
330
18
100
AcDbEntity
  8
MSL-90-S16-S-0
370
     0
100
AcDbCircle
 10
328.9354670418909
 20
155.0094137621731
 30
0.0
 40
2.5
  0
LINE
  5
A12
330
18
100
AcDbEntity
  8
MSL-90-S16-S-0
370
     0
100
AcDbLine
 10
276.435467041891
 20
75.00941376217309
 30
0.0
 11
276.435467041891
 21
75.50941376217309
 31
0.0
  0
CIRCLE
  5
A13
330
18
100
AcDbEntity
  8
MSL-90-S16-S-0
370
     0
100
AcDbCircle
 10
328.935467041891
 20
95.00941376217316
 30
0.0
 40
5.0
  0
CIRCLE
  5
A14
330
18
100
AcDbEntity
  8
MSL-90-S16-S-0
370
     0
100
AcDbCircle
 10
373.9354670418909
 20
155.0094137621732
 30
0.0
 40
5.0
  0
LINE
  5
A15
330
18
100
AcDbEntity
  8
MSL-90-S16-S-0
370
     0
100
AcDbLine
 10
276.435467041891
 20
115.0094137621731
 30
0.0
 11
276.435467041891
 21
135.0094137621731
 31
0.0
  0
LINE
  5
A16
330
18
100
AcDbEntity
  8
MSL-90-S16-S-0
370
     0
100
AcDbLine
 10
426.4354670418908
 20
135.0094137621732
 30
0.0
 11
426.4354670418908
 21
115.0094137621732
 31
0.0
  0
LINE
  5
A27
330
18
100
AcDbEntity
  8
MSL-90-S16-S-0
370
     0
100
AcDbLine
 10
426.4354670418908
 20
115.0094137621732
 30
0.0
 11
426.4354670418909
 21
75.50941376217322
 31
0.0
  0
LINE
  5
A28
330
18
100
AcDbEntity
  8
MSL-90-S16-S-0
370
     0
100
AcDbLine
 10
276.435467041891
 20
75.50941376217309
 30
0.0
 11
276.435467041891
 21
115.0094137621731
 31
0.0
  0
LINE
  5
A29
330
18
100
AcDbEntity
  8
MSL-90-S16-S-0
370
     0
100
AcDbLine
 10
276.435467041891
 20
115.0094137621731
 30
0.0
 11
426.4354670418908
 21
115.0094137621732
 31
0.0
  0
LINE
  5
A2A
330
18
100
AcDbEntity
  8
MSL-90-S16-S-0
370
     0
100
AcDbLine
 10
426.4354670418908
 20
174.5094137621732
 30
0.0
 11
426.4354670418908
 21
135.0094137621732
 31
0.0
  0
LINE
  5
A2B
330
18
100
AcDbEntity
  8
MSL-90-S16-S-0
370
     0
100
AcDbLine
 10
276.435467041891
 20
135.0094137621731
 30
0.0
 11
276.4354670418909
 21
174.5094137621731
 31
0.0
  0
LINE
  5
A2C
330
18
100
AcDbEntity
  8
MSL-90-S16-S-0
370
     0
100
AcDbLine
 10
426.4354670418908
 20
135.0094137621732
 30
0.0
 11
276.4354670418909
 21
135.0094137621731
 31
0.0
  0
LINE
  5
A2D
330
18
100
AcDbEntity
  8
MSL-90-S16-S-0
370
     0
100
AcDbLine
 10
426.4354670418909
 20
75.50941376217321
 30
0.0
 11
426.4354670418909
 21
75.00941376217319
 31
0.0
  0
LINE
  5
A2E
330
18
100
AcDbEntity
  8
MSL-90-S16-S-0
370
     0
100
AcDbLine
 10
426.4354670418909
 20
75.00941376217319
 30
0.0
 11
276.435467041891
 21
75.00941376217308
 31
0.0
  0
LINE
  5
A2F
330
18
100
AcDbEntity
  8
MSL-90-S16-S-0
370
     0
100
AcDbLine
 10
276.435467041891
 20
75.50941376217309
 30
0.0
 11
426.4354670418909
 21
75.50941376217322
 31
0.0
  0
LINE
  5
A30
330
18
100
AcDbEntity
  8
MSL-90-S16-S-0
370
     0
100
AcDbLine
 10
426.4354670418908
 20
175.0094137621732
 30
0.0
 11
426.4354670418908
 21
174.5094137621732
 31
0.0
  0
LINE
  5
A31
330
18
100
AcDbEntity
  8
MSL-90-S16-S-0
370
     0
100
AcDbLine
 10
276.4354670418909
 20
174.5094137621731
 30
0.0
 11
276.4354670418909
 21
175.0094137621731
 31
0.0
  0
LINE
  5
A32
330
18
100
AcDbEntity
  8
MSL-90-S16-S-0
370
     0
100
AcDbLine
 10
426.4354670418908
 20
174.5094137621732
 30
0.0
 11
276.4354670418909
 21
174.5094137621731
 31
0.0
  0
ARC
  5
A33
330
18
100
AcDbEntity
  8
MSL-90-S16-S-5
370
     0
100
AcDbCircle
 10
351.435467041891
 20
95.00941376217316
 30
0.0
 40
3.0
100
AcDbArc
 50
254.9999999999998
 51
194.9999999999998
  0
ARC
  5
A34
330
18
100
AcDbEntity
  8
MSL-90-S16-S-5
370
     0
100
AcDbCircle
 10
306.4354670418909
 20
95.00941376217312
 30
0.0
 40
3.0
100
AcDbArc
 50
254.9999999999996
 51
195.0000000000001
  0
ARC
  5
A35
330
18
100
AcDbEntity
  8
MSL-90-S16-S-5
370
     0
100
AcDbCircle
 10
328.935467041891
 20
95.00941376217316
 30
0.0
 40
3.0
100
AcDbArc
 50
254.9999999999999
 51
194.9999999999999
  0
ARC
  5
A36
330
18
100
AcDbEntity
  8
MSL-90-S16-S-5
370
     0
100
AcDbCircle
 10
396.4354670418909
 20
95.00941376217321
 30
0.0
 40
3.0
100
AcDbArc
 50
254.9999999999994
 51
194.9999999999999
  0
ARC
  5
A37
330
18
100
AcDbEntity
  8
MSL-90-S16-S-5
370
     0
100
AcDbCircle
 10
373.9354670418909
 20
95.00941376217317
 30
0.0
 40
3.0
100
AcDbArc
 50
255.0000000000004
 51
195.0000000000001
  0
ARC
  5
A38
330
18
100
AcDbEntity
  8
MSL-90-S16-S-5
370
     0
100
AcDbCircle
 10
351.4354670418909
 20
155.0094137621731
 30
0.0
 40
3.0
100
AcDbArc
 50
254.9999999999998
 51
195.0000000000001
  0
ARC
  5
A39
330
18
100
AcDbEntity
  8
MSL-90-S16-S-5
370
     0
100
AcDbCircle
 10
306.4354670418909
 20
155.0094137621731
 30
0.0
 40
3.0
100
AcDbArc
 50
254.9999999999996
 51
194.9999999999995
  0
ARC
  5
A3A
330
18
100
AcDbEntity
  8
MSL-90-S16-S-5
370
     0
100
AcDbCircle
 10
328.9354670418909
 20
155.0094137621731
 30
0.0
 40
3.0
100
AcDbArc
 50
255.0
 51
194.9999999999999
  0
ARC
  5
A3B
330
18
100
AcDbEntity
  8
MSL-90-S16-S-5
370
     0
100
AcDbCircle
 10
396.4354670418909
 20
155.0094137621732
 30
0.0
 40
3.0
100
AcDbArc
 50
254.9999999999994
 51
194.9999999999999
  0
ARC
  5
A3C
330
18
100
AcDbEntity
  8
MSL-90-S16-S-5
370
     0
100
AcDbCircle
 10
373.9354670418909
 20
155.0094137621732
 30
0.0
 40
3.0
100
AcDbArc
 50
255.0000000000004
 51
195.0000000000001
  0
LINE
  5
A41
330
18
100
AcDbEntity
  8
MSL-90-S16-S-0
370
     0
100
AcDbLine
 10
304.2354670418909
 20
153.8219795534693
 30
0.0
 11
304.2354670418909
 21
154.009467162177
 31
0.0
  0
LINE
  5
A42
330
18
100
AcDbEntity
  8
MSL-90-S16-S-0
370
     0
100
AcDbLine
 10
304.1441558894813
 20
154.009467162177
 30
0.0
 11
304.2354670418909
 21
154.009467162177
 31
0.0
  0
LINE
  5
A49
330
18
100
AcDbEntity
  8
MSL-90-S16-S-0
370
     0
100
AcDbLine
 10
276.435467041891
 20
75.25941376217307
 30
0.0
 11
266.435467041891
 21
75.25941376217307
 31
0.0
  0
LINE
  5
A4A
330
18
100
AcDbEntity
  8
MSL-90-S16-S-0
370
     0
100
AcDbLine
 10
276.4354670418909
 20
135.0094137621731
 30
0.0
 11
276.4354670418909
 21
115.0094137621731
 31
0.0
  0
LINE
  5
A4B
330
18
100
AcDbEntity
  8
MSL-90-S16-S-0
370
     0
100
AcDbLine
 10
266.4354670418909
 20
174.7594137621731
 30
0.0
 11
276.4354670418909
 21
174.7594137621731
 31
0.0
  0
LINE
  5
A4E
330
18
100
AcDbEntity
  8
MSL-90-S16-S-0
370
     0
100
AcDbLine
 10
266.435467041891
 20
75.75941376217307
 30
0.0
 11
276.435467041891
 21
75.75941376217308
 31
0.0
  0
LINE
  5
A4F
330
18
100
AcDbEntity
  8
MSL-90-S16-S-0
370
     0
100
AcDbLine
 10
276.4354670418909
 20
174.2594137621731
 30
0.0
 11
266.4354670418909
 21
174.2594137621731
 31
0.0
  0
LINE
  5
A50
330
18
100
AcDbEntity
  8
MSL-90-S16-S-0
370
     0
100
AcDbLine
 10
266.4354670418909
 20
174.7594137621731
 30
0.0
 11
266.435467041891
 21
75.25941376217307
 31
0.0
  0
LINE
  5
A51
330
18
100
AcDbEntity
  8
MSL-90-S16-S-0
370
     0
100
AcDbLine
 10
436.4354670418909
 20
75.75941376217318
 30
0.0
 11
436.4354670418909
 21
75.25941376217318
 31
0.0
  0
LINE
  5
A52
330
18
100
AcDbEntity
  8
MSL-90-S16-S-0
370
     0
100
AcDbLine
 10
436.4354670418909
 20
75.25941376217318
 30
0.0
 11
426.4354670418909
 21
75.25941376217318
 31
0.0
  0
LINE
  5
A53
330
18
100
AcDbEntity
  8
MSL-90-S16-S-0
370
     0
100
AcDbLine
 10
426.4354670418909
 20
115.0094137621732
 30
0.0
 11
426.4354670418909
 21
135.0094137621733
 31
0.0
  0
LINE
  5
A54
330
18
100
AcDbEntity
  8
MSL-90-S16-S-0
370
     0
100
AcDbLine
 10
436.4354670418909
 20
75.75941376217318
 30
0.0
 11
436.4354670418908
 21
174.2594137621732
 31
0.0
  0
LINE
  5
A55
330
18
100
AcDbEntity
  8
MSL-90-S16-S-0
370
     0
100
AcDbLine
 10
436.4354670418908
 20
174.2594137621732
 30
0.0
 11
426.4354670418908
 21
174.2594137621732
 31
0.0
  0
LINE
  5
A56
330
18
100
AcDbEntity
  8
MSL-90-S16-S-0
370
     0
100
AcDbLine
 10
426.4354670418908
 20
174.7594137621732
 30
0.0
 11
436.4354670418908
 21
174.7594137621732
 31
0.0
  0
LINE
  5
A57
330
18
100
AcDbEntity
  8
MSL-90-S16-S-0
370
     0
100
AcDbLine
 10
436.4354670418908
 20
174.7594137621732
 30
0.0
 11
436.4354670418908
 21
174.2594137621732
 31
0.0
  0
LINE
  5
A58
330
18
100
AcDbEntity
  8
MSL-90-S16-S-0
370
     0
100
AcDbLine
 10
426.4354670418909
 20
75.75941376217318
 30
0.0
 11
436.4354670418909
 21
75.75941376217319
 31
0.0
  0
LINE
  5
ACC
330
18
100
AcDbEntity
  8
MSL-90-S16-S-0
370
     0
100
AcDbLine
 10
263.4354670418909
 20
170.0091503041149
 30
0.0
 11
263.4354670418909
 21
80.00915030411491
 31
0.0
  0
LINE
  5
AF1
330
18
100
AcDbEntity
  8
MSL-90-S16-S-0
370
     0
100
AcDbLine
 10
553.4354670418909
 20
80.00915030411494
 30
0.0
 11
539.4354670418908
 21
80.00915030411494
 31
0.0
  0
LINE
  5
AF2
330
18
100
AcDbEntity
  8
MSL-90-S16-S-0
370
     0
100
AcDbLine
 10
539.4354670418908
 20
170.0091503041149
 30
0.0
 11
553.4354670418909
 21
170.0091503041149
 31
0.0
  0
LINE
  5
AF3
330
18
100
AcDbEntity
  8
MSL-90-S16-S-0
370
     0
100
AcDbLine
 10
553.4354670418909
 20
167.0091503041149
 30
0.0
 11
539.4354670418908
 21
167.0091503041149
 31
0.0
  0
LINE
  5
AF5
330
18
100
AcDbEntity
  8
MSL-90-S16-S-0
370
     0
100
AcDbLine
 10
539.4354670418908
 20
80.00915030411494
 30
0.0
 11
539.4354670418908
 21
170.0091503041149
 31
0.0
  0
LINE
  5
AF7
330
18
100
AcDbEntity
  8
MSL-90-S16-S-0
370
     0
100
AcDbLine
 10
539.4354670418908
 20
83.00915030411493
 30
0.0
 11
553.4354670418909
 21
83.00915030411495
 31
0.0
  0
LINE
  5
AF8
330
18
100
AcDbEntity
  8
MSL-90-S16-S-0
370
     0
100
AcDbLine
 10
553.4354670418909
 20
80.00915030411494
 30
0.0
 11
553.4354670418909
 21
170.0091503041149
 31
0.0
  0
LINE
  5
AF9
330
18
100
AcDbEntity
  8
MSL-90-S16-S-0
370
     0
100
AcDbLine
 10
397.055395998337
 20
252.4648939902338
 30
0.0
 11
121.0553959983369
 21
252.4648939902338
 31
0.0
  0
LINE
  5
AFE
330
18
100
AcDbEntity
  8
MSL-90-S16-S-0
370
     0
100
AcDbLine
 10
397.0553959983369
 20
218.4648939902338
 30
0.0
 11
121.0553959983369
 21
218.4648939902338
 31
0.0
  0
LINE
  5
AFF
330
18
100
AcDbEntity
  8
MSL-90-S16-S-0
370
     0
100
AcDbLine
 10
397.055395998337
 20
248.9648939902339
 30
0.0
 11
121.0553959983369
 21
248.9648939902338
 31
0.0
  0
LINE
  5
B00
330
18
100
AcDbEntity
  8
MSL-90-S16-S-0
370
     0
100
AcDbLine
 10
397.0553959983369
 20
205.4648939902338
 30
0.0
 11
121.0553959983369
 21
205.4648939902338
 31
0.0
  0
LINE
  5
B01
330
18
100
AcDbEntity
  8
MSL-90-S16-S-0
370
     0
100
AcDbLine
 10
397.055395998337
 20
259.9649018402319
 30
0.0
 11
284.0553959983369
 21
259.9649018402319
 31
0.0
  0
LINE
  5
B02
330
18
100
AcDbEntity
  8
MSL-90-S16-S-0
370
     0
100
AcDbLine
 10
249.0553959983369
 20
259.9649018402319
 30
0.0
 11
169.0553959983369
 21
259.964901840232
 31
0.0
  0
LINE
  5
B03
330
18
100
AcDbEntity
  8
MSL-90-S16-S-0
370
     0
100
AcDbLine
 10
134.0553959983369
 20
259.964901840232
 30
0.0
 11
121.0553959983369
 21
259.964901840232
 31
0.0
  0
LINE
  5
B04
330
18
100
AcDbEntity
  8
MSL-90-S16-S-0
370
     0
100
AcDbLine
 10
397.055395998337
 20
252.9649550016765
 30
0.0
 11
121.0553959983369
 21
252.9649550016765
 31
0.0
  0
LINE
  5
B05
330
18
100
AcDbEntity
  8
MSL-90-S16-S-0
370
     0
100
AcDbLine
 10
397.055395998337
 20
258.9610570592209
 30
0.0
 11
284.0553959983369
 21
258.9610570592209
 31
0.0
  0
LINE
  5
B06
330
18
100
AcDbEntity
  8
MSL-90-S16-S-0
370
     0
100
AcDbLine
 10
249.0553959983369
 20
258.9610570592209
 30
0.0
 11
169.0553959983369
 21
258.9610570592209
 31
0.0
  0
LINE
  5
B07
330
18
100
AcDbEntity
  8
MSL-90-S16-S-0
370
     0
100
AcDbLine
 10
134.0553959983369
 20
258.9610570592209
 30
0.0
 11
121.0553959983369
 21
258.9610570592209
 31
0.0
  0
LINE
  5
B08
330
18
100
AcDbEntity
  8
MSL-90-S16-S-0
370
     0
100
AcDbLine
 10
397.0553959983369
 20
255.484979600362
 30
0.0
 11
284.0553959983369
 21
255.484979600362
 31
0.0
  0
LINE
  5
B09
330
18
100
AcDbEntity
  8
MSL-90-S16-S-0
370
     0
100
AcDbLine
 10
249.0553959983369
 20
255.484979600362
 30
0.0
 11
169.0553959983369
 21
255.4849796003621
 31
0.0
  0
LINE
  5
B0A
330
18
100
AcDbEntity
  8
MSL-90-S16-S-0
370
     0
100
AcDbLine
 10
134.0553959983369
 20
255.4849796003621
 30
0.0
 11
121.0553959983369
 21
255.4849796003621
 31
0.0
  0
LINE
  5
B0B
330
18
100
AcDbEntity
  8
MSL-90-S16-S-0
370
     0
100
AcDbLine
 10
397.055395998337
 20
256.5166854149524
 30
0.0
 11
284.0553959983369
 21
256.5166854149524
 31
0.0
  0
LINE
  5
B0C
330
18
100
AcDbEntity
  8
MSL-90-S16-S-0
370
     0
100
AcDbLine
 10
249.0553959983369
 20
256.5166854149524
 30
0.0
 11
169.0553959983369
 21
256.5166854149525
 31
0.0
  0
LINE
  5
B0D
330
18
100
AcDbEntity
  8
MSL-90-S16-S-0
370
     0
100
AcDbLine
 10
134.0553959983369
 20
256.5166854149525
 30
0.0
 11
121.0553959983369
 21
256.5166854149524
 31
0.0
  0
LINE
  5
B0E
330
18
100
AcDbEntity
  8
MSL-90-S16-S-0
370
     0
100
AcDbLine
 10
134.055395998337
 20
289.9648939902337
 30
0.0
 11
134.055395998337
 21
290.4648939902337
 31
0.0
  0
LINE
  5
B0F
330
18
100
AcDbEntity
  8
MSL-90-S16-S-0
370
     0
100
AcDbLine
 10
284.055395998337
 20
265.4648939902338
 30
0.0
 11
134.055395998337
 21
265.4648939902337
 31
0.0
  0
LINE
  5
B10
330
18
100
AcDbEntity
  8
MSL-90-S16-S-0
370
     0
100
AcDbLine
 10
284.055395998337
 20
289.9648939902338
 30
0.0
 11
284.055395998337
 21
265.4648939902338
 31
0.0
  0
LINE
  5
B11
330
18
100
AcDbEntity
  8
MSL-90-S16-S-0
370
     0
100
AcDbLine
 10
134.055395998337
 20
289.9648939902337
 30
0.0
 11
134.055395998337
 21
265.4648939902337
 31
0.0
  0
LINE
  5
B12
330
18
100
AcDbEntity
  8
MSL-90-S16-S-0
370
     0
100
AcDbLine
 10
284.055395998337
 20
290.4648939902338
 30
0.0
 11
284.055395998337
 21
289.9648939902338
 31
0.0
  0
LINE
  5
B13
330
18
100
AcDbEntity
  8
MSL-90-S16-S-0
370
     0
100
AcDbLine
 10
134.055395998337
 20
290.4648939902337
 30
0.0
 11
284.055395998337
 21
290.4648939902338
 31
0.0
  0
LINE
  5
B14
330
18
100
AcDbEntity
  8
MSL-90-S16-S-0
370
     0
100
AcDbLine
 10
284.055395998337
 20
289.9648939902338
 30
0.0
 11
134.0553959983369
 21
289.9648939902337
 31
0.0
  0
LINE
  5
B15
330
18
100
AcDbEntity
  8
MSL-90-S16-S-0
370
     0
100
AcDbLine
 10
250.0553959983369
 20
264.7646689902337
 30
0.0
 11
250.0553959983369
 21
264.0646725902338
 31
0.0
  0
LINE
  5
B16
330
18
100
AcDbEntity
  8
MSL-90-S16-S-0
370
     0
100
AcDbLine
 10
250.0553959983369
 20
260.8646737902338
 30
0.0
 11
250.0553959983369
 21
260.7146693902338
 31
0.0
  0
LINE
  5
B17
330
18
100
AcDbEntity
  8
MSL-90-S16-S-0
370
     0
100
AcDbLine
 10
250.0553959983369
 20
260.7146693902338
 30
0.0
 11
250.0553959983369
 21
255.4646731902337
 31
0.0
  0
LINE
  5
B18
330
18
100
AcDbEntity
  8
MSL-90-S16-S-0
370
     0
100
AcDbLine
 10
250.5553959983369
 20
255.4646731902337
 30
0.0
 11
250.5553959983369
 21
255.4653145897752
 31
0.0
  0
LINE
  5
B19
330
18
100
AcDbEntity
  8
MSL-90-S16-S-0
370
     0
100
AcDbLine
 10
284.055395998337
 20
255.4646731902337
 30
0.0
 11
283.055395998337
 21
255.4646731902337
 31
0.0
  0
LINE
  5
B1A
330
18
100
AcDbEntity
  8
MSL-90-S16-S-0
370
     0
100
AcDbLine
 10
284.055395998337
 20
261.464676867
 30
0.0
 11
284.055395998337
 21
255.4646731902338
 31
0.0
  0
LINE
  5
B1B
330
18
100
AcDbEntity
  8
MSL-90-S16-S-0
370
     0
100
AcDbLine
 10
250.0553959983369
 20
255.4646731902337
 30
0.0
 11
249.0553959983369
 21
255.4646731902337
 31
0.0
  0
LINE
  5
B1C
330
18
100
AcDbEntity
  8
MSL-90-S16-S-0
370
     0
100
AcDbLine
 10
249.0553959983369
 20
255.4646731902337
 30
0.0
 11
249.0553959983369
 21
261.464676867
 31
0.0
  0
LINE
  5
B1D
330
18
100
AcDbEntity
  8
MSL-90-S16-S-0
370
     0
100
AcDbLine
 10
283.555395998337
 20
261.0646737902338
 30
0.0
 11
283.555395998337
 21
263.8646725902337
 31
0.0
  0
LINE
  5
B1E
330
18
100
AcDbEntity
  8
MSL-90-S16-S-0
370
     0
100
AcDbLine
 10
249.5553959983369
 20
263.8646725902337
 30
0.0
 11
249.5553959983369
 21
261.0646737902338
 31
0.0
  0
LINE
  5
B1F
330
18
100
AcDbEntity
  8
MSL-90-S16-S-0
370
     0
100
AcDbLine
 10
276.8553959983369
 20
264.9648119902338
 30
0.0
 11
276.8553959983369
 21
265.4648939902337
 31
0.0
  0
LINE
  5
B20
330
18
100
AcDbEntity
  8
MSL-90-S16-S-0
370
     0
100
AcDbLine
 10
276.8553959983369
 20
256.0649250903145
 30
0.0
 11
276.8553959983369
 21
264.9648119902338
 31
0.0
  0
LINE
  5
B21
330
18
100
AcDbEntity
  8
MSL-90-S16-S-0
370
     0
100
AcDbLine
 10
256.2553959983369
 20
264.9648119902338
 30
0.0
 11
276.8553959983369
 21
264.9648119902338
 31
0.0
  0
LINE
  5
B22
330
18
100
AcDbEntity
  8
MSL-90-S16-S-0
370
     0
100
AcDbLine
 10
276.8553959983369
 20
255.8653399239906
 30
0.0
 11
276.8553959983369
 21
256.0649250903145
 31
0.0
  0
LINE
  5
B23
330
18
100
AcDbEntity
  8
MSL-90-S16-S-0
370
     0
100
AcDbLine
 10
276.8553959983369
 20
255.8653399239906
 30
0.0
 11
282.5553959983369
 21
255.8653393902338
 31
0.0
  0
LINE
  5
B24
330
18
100
AcDbEntity
  8
MSL-90-S16-S-0
370
     0
100
AcDbLine
 10
256.2553959983369
 20
264.9648119902338
 30
0.0
 11
256.2553959983369
 21
265.4648939902337
 31
0.0
  0
LINE
  5
B25
330
18
100
AcDbEntity
  8
MSL-90-S16-S-0
370
     0
100
AcDbLine
 10
256.2553959983369
 20
256.0649250903145
 30
0.0
 11
256.2553959983369
 21
264.9648119902338
 31
0.0
  0
ARC
  5
B26
330
18
100
AcDbEntity
  8
MSL-90-S16-S-0
370
     0
100
AcDbCircle
 10
249.7553959983369
 20
263.8646725902337
 30
0.0
 40
0.2
100
AcDbArc
 50
90.0
 51
180.0
  0
LINE
  5
B27
330
18
100
AcDbEntity
  8
MSL-90-S16-S-0
370
     0
100
AcDbLine
 10
250.5553959983369
 20
264.0646725902337
 30
0.0
 11
249.7553959983369
 21
264.0646725902337
 31
0.0
  0
LINE
  5
B28
330
18
100
AcDbEntity
  8
MSL-90-S16-S-0
370
     0
100
AcDbLine
 10
256.2553959983369
 20
255.8653396571119
 30
0.0
 11
256.2553959983369
 21
256.0649250903145
 31
0.0
  0
LINE
  5
B29
330
18
100
AcDbEntity
  8
MSL-90-S16-S-0
370
     0
100
AcDbLine
 10
256.2553959983369
 20
255.4646731902337
 30
0.0
 11
256.2553959983369
 21
255.8653396571118
 31
0.0
  0
LINE
  5
B2A
330
18
100
AcDbEntity
  8
MSL-90-S16-S-0
370
     0
100
AcDbLine
 10
256.2553959983369
 20
255.4646731902337
 30
0.0
 11
282.555395998337
 21
255.4646731902337
 31
0.0
  0
LINE
  5
B2B
330
18
100
AcDbEntity
  8
MSL-90-S16-S-0
370
     0
100
AcDbLine
 10
256.2553959983369
 20
256.0649250903145
 30
0.0
 11
276.8553959983369
 21
256.0649250903145
 31
0.0
  0
LINE
  5
B2C
330
18
100
AcDbEntity
  8
MSL-90-S16-S-0
370
     0
100
AcDbLine
 10
282.555395998337
 20
260.8646737902338
 30
0.0
 11
283.3553959983369
 21
260.8646737902338
 31
0.0
  0
LINE
  5
B2D
330
18
100
AcDbEntity
  8
MSL-90-S16-S-0
370
     0
100
AcDbLine
 10
282.555395998337
 20
264.2646159902338
 30
0.0
 11
282.555395998337
 21
264.7646689902337
 31
0.0
  0
LINE
  5
B2E
330
18
100
AcDbEntity
  8
MSL-90-S16-S-0
370
     0
100
AcDbLine
 10
282.555395998337
 20
255.8653393902338
 30
0.0
 11
282.555395998337
 21
264.2646159902338
 31
0.0
  0
LINE
  5
B2F
330
18
100
AcDbEntity
  8
MSL-90-S16-S-0
370
     0
100
AcDbLine
 10
282.555395998337
 20
255.4653145897752
 30
0.0
 11
282.555395998337
 21
255.8653393902337
 31
0.0
  0
LINE
  5
B30
330
18
100
AcDbEntity
  8
MSL-90-S16-S-0
370
     0
100
AcDbLine
 10
282.555395998337
 20
264.7646689902337
 30
0.0
 11
283.055395998337
 21
264.7646689902337
 31
0.0
  0
LINE
  5
B31
330
18
100
AcDbEntity
  8
MSL-90-S16-S-0
370
     0
100
AcDbLine
 10
282.555395998337
 20
255.4653145897752
 30
0.0
 11
282.555395998337
 21
255.4646731902337
 31
0.0
  0
LINE
  5
B32
330
18
100
AcDbEntity
  8
MSL-90-S16-S-0
370
     0
100
AcDbLine
 10
282.555395998337
 20
260.7146693902338
 30
0.0
 11
283.055395998337
 21
260.7146693902338
 31
0.0
  0
LINE
  5
B33
330
18
100
AcDbEntity
  8
MSL-90-S16-S-0
370
     0
100
AcDbLine
 10
282.555395998337
 20
255.4646731902337
 30
0.0
 11
283.055395998337
 21
255.4646731902337
 31
0.0
  0
LINE
  5
B34
330
18
100
AcDbEntity
  8
MSL-90-S16-S-0
370
     0
100
AcDbLine
 10
250.5553959983369
 20
264.7646689902337
 30
0.0
 11
250.5553959983369
 21
264.2646159902337
 31
0.0
  0
LINE
  5
B35
330
18
100
AcDbEntity
  8
MSL-90-S16-S-0
370
     0
100
AcDbLine
 10
250.5553959983369
 20
255.4646731902337
 30
0.0
 11
250.0553959983369
 21
255.4646731902337
 31
0.0
  0
LINE
  5
B36
330
18
100
AcDbEntity
  8
MSL-90-S16-S-0
370
     0
100
AcDbLine
 10
250.5553959983369
 20
264.2646159902337
 30
0.0
 11
250.5553959983369
 21
255.8653393902337
 31
0.0
  0
LINE
  5
B37
330
18
100
AcDbEntity
  8
MSL-90-S16-S-0
370
     0
100
AcDbLine
 10
256.2553959983369
 20
264.7646689902337
 30
0.0
 11
250.5553959983369
 21
264.7646689902337
 31
0.0
  0
LINE
  5
B38
330
18
100
AcDbEntity
  8
MSL-90-S16-S-0
370
     0
100
AcDbLine
 10
256.2553959983369
 20
264.2646159902337
 30
0.0
 11
250.5553959983369
 21
264.2646159902337
 31
0.0
  0
LINE
  5
B39
330
18
100
AcDbEntity
  8
MSL-90-S16-S-0
370
     0
100
AcDbLine
 10
256.2553959983369
 20
255.4646731902337
 30
0.0
 11
250.555395998337
 21
255.4646731902337
 31
0.0
  0
LINE
  5
B3A
330
18
100
AcDbEntity
  8
MSL-90-S16-S-0
370
     0
100
AcDbLine
 10
256.2553959983369
 20
255.8653396571119
 30
0.0
 11
250.555395998337
 21
255.8653393902337
 31
0.0
  0
LINE
  5
B3B
330
18
100
AcDbEntity
  8
MSL-90-S16-S-0
370
     0
100
AcDbLine
 10
283.055395998337
 20
264.0646725902338
 30
0.0
 11
283.055395998337
 21
264.7646689902337
 31
0.0
  0
LINE
  5
B3C
330
18
100
AcDbEntity
  8
MSL-90-S16-S-0
370
     0
100
AcDbLine
 10
283.055395998337
 20
260.7146693902338
 30
0.0
 11
283.055395998337
 21
260.8646737902339
 31
0.0
  0
LINE
  5
B3D
330
18
100
AcDbEntity
  8
MSL-90-S16-S-0
370
     0
100
AcDbLine
 10
283.055395998337
 20
255.4646731902337
 30
0.0
 11
283.055395998337
 21
260.7146693902338
 31
0.0
  0
LINE
  5
B3E
330
18
100
AcDbEntity
  8
MSL-90-S16-S-0
370
     0
100
AcDbLine
 10
283.5553959983369
 20
261.964676867
 30
0.0
 11
284.055395998337
 21
261.464676867
 31
0.0
  0
LINE
  5
B3F
330
18
100
AcDbEntity
  8
MSL-90-S16-S-0
370
     0
100
AcDbLine
 10
276.8553959983369
 20
264.7646689902337
 30
0.0
 11
282.5553959983369
 21
264.7646689902337
 31
0.0
  0
LINE
  5
B40
330
18
100
AcDbEntity
  8
MSL-90-S16-S-0
370
     0
100
AcDbLine
 10
249.5553959983369
 20
261.964676867
 30
0.0
 11
249.0553959983369
 21
261.464676867
 31
0.0
  0
LINE
  5
B41
330
18
100
AcDbEntity
  8
MSL-90-S16-S-0
370
     0
100
AcDbLine
 10
250.5553959983369
 20
255.8653393902337
 30
0.0
 11
250.5553959983369
 21
255.4653145897752
 31
0.0
  0
LINE
  5
B42
330
18
100
AcDbEntity
  8
MSL-90-S16-S-0
370
     0
100
AcDbLine
 10
250.5553959983369
 20
264.7646689902337
 30
0.0
 11
250.0553959983369
 21
264.7646689902337
 31
0.0
  0
LINE
  5
B43
330
18
100
AcDbEntity
  8
MSL-90-S16-S-0
370
     0
100
AcDbLine
 10
250.5553959983369
 20
260.7146693902338
 30
0.0
 11
250.0553959983369
 21
260.7146693902338
 31
0.0
  0
LINE
  5
B44
330
18
100
AcDbEntity
  8
MSL-90-S16-S-0
370
     0
100
AcDbLine
 10
276.8553959983369
 20
264.2646159902337
 30
0.0
 11
282.5553959983369
 21
264.2646159902337
 31
0.0
  0
ARC
  5
B45
330
18
100
AcDbEntity
  8
MSL-90-S16-S-0
370
     0
100
AcDbCircle
 10
283.3553959983369
 20
261.0646737902338
 30
0.0
 40
0.2
100
AcDbArc
 50
270.0
 51
0.0
  0
ARC
  5
B46
330
18
100
AcDbEntity
  8
MSL-90-S16-S-0
370
     0
100
AcDbCircle
 10
249.7553959983369
 20
261.0646737902338
 30
0.0
 40
0.2
100
AcDbArc
 50
180.0
 51
270.0
  0
LINE
  5
B47
330
18
100
AcDbEntity
  8
MSL-90-S16-S-0
370
     0
100
AcDbLine
 10
249.7553959983369
 20
260.8646737902337
 30
0.0
 11
250.5553959983369
 21
260.8646737902337
 31
0.0
  0
LINE
  5
B48
330
18
100
AcDbEntity
  8
MSL-90-S16-S-0
370
     0
100
AcDbLine
 10
283.3553959983369
 20
264.0646725902337
 30
0.0
 11
282.5553959983369
 21
264.0646725902337
 31
0.0
  0
ARC
  5
B49
330
18
100
AcDbEntity
  8
MSL-90-S16-S-0
370
     0
100
AcDbCircle
 10
283.3553959983369
 20
263.8646725902338
 30
0.0
 40
0.2
100
AcDbArc
 50
0.0
 51
90.0
  0
ARC
  5
B4A
330
18
100
AcDbEntity
  8
MSL-90-S16-S-0
370
     0
100
AcDbCircle
 10
134.755395998337
 20
261.0646737902337
 30
0.0
 40
0.2
100
AcDbArc
 50
180.0
 51
270.0
  0
LINE
  5
B4B
330
18
100
AcDbEntity
  8
MSL-90-S16-S-0
370
     0
100
AcDbLine
 10
134.755395998337
 20
260.8646737902337
 30
0.0
 11
135.555395998337
 21
260.8646737902337
 31
0.0
  0
LINE
  5
B4C
330
18
100
AcDbEntity
  8
MSL-90-S16-S-0
370
     0
100
AcDbLine
 10
168.3553959983369
 20
264.0646725902337
 30
0.0
 11
167.5553959983369
 21
264.0646725902337
 31
0.0
  0
ARC
  5
B4D
330
18
100
AcDbEntity
  8
MSL-90-S16-S-0
370
     0
100
AcDbCircle
 10
168.355395998337
 20
263.8646725902337
 30
0.0
 40
0.2
100
AcDbArc
 50
0.0
 51
90.0
  0
LINE
  5
B4E
330
18
100
AcDbEntity
  8
MSL-90-S16-S-0
370
     0
100
AcDbLine
 10
135.055395998337
 20
264.7646689902336
 30
0.0
 11
135.055395998337
 21
264.0646725902337
 31
0.0
  0
LINE
  5
B4F
330
18
100
AcDbEntity
  8
MSL-90-S16-S-0
370
     0
100
AcDbLine
 10
135.055395998337
 20
260.8646737902337
 30
0.0
 11
135.055395998337
 21
260.7146693902337
 31
0.0
  0
LINE
  5
B50
330
18
100
AcDbEntity
  8
MSL-90-S16-S-0
370
     0
100
AcDbLine
 10
135.055395998337
 20
260.7146693902337
 30
0.0
 11
135.055395998337
 21
255.4646731902337
 31
0.0
  0
LINE
  5
B51
330
18
100
AcDbEntity
  8
MSL-90-S16-S-0
370
     0
100
AcDbLine
 10
135.555395998337
 20
255.4646731902337
 30
0.0
 11
135.555395998337
 21
255.4653145897751
 31
0.0
  0
LINE
  5
B52
330
18
100
AcDbEntity
  8
MSL-90-S16-S-0
370
     0
100
AcDbLine
 10
169.055395998337
 20
255.4646731902337
 30
0.0
 11
168.055395998337
 21
255.4646731902337
 31
0.0
  0
LINE
  5
B53
330
18
100
AcDbEntity
  8
MSL-90-S16-S-0
370
     0
100
AcDbLine
 10
169.055395998337
 20
261.464676867
 30
0.0
 11
169.055395998337
 21
255.4646731902337
 31
0.0
  0
LINE
  5
B54
330
18
100
AcDbEntity
  8
MSL-90-S16-S-0
370
     0
100
AcDbLine
 10
135.055395998337
 20
255.4646731902337
 30
0.0
 11
134.055395998337
 21
255.4646731902337
 31
0.0
  0
LINE
  5
B55
330
18
100
AcDbEntity
  8
MSL-90-S16-S-0
370
     0
100
AcDbLine
 10
134.055395998337
 20
255.4646731902337
 30
0.0
 11
134.055395998337
 21
261.4646768669999
 31
0.0
  0
LINE
  5
B56
330
18
100
AcDbEntity
  8
MSL-90-S16-S-0
370
     0
100
AcDbLine
 10
168.555395998337
 20
261.0646737902337
 30
0.0
 11
168.555395998337
 21
263.8646725902337
 31
0.0
  0
LINE
  5
B57
330
18
100
AcDbEntity
  8
MSL-90-S16-S-0
370
     0
100
AcDbLine
 10
134.555395998337
 20
263.8646725902337
 30
0.0
 11
134.555395998337
 21
261.0646737902337
 31
0.0
  0
LINE
  5
B58
330
18
100
AcDbEntity
  8
MSL-90-S16-S-0
370
     0
100
AcDbLine
 10
161.855395998337
 20
264.9648119902337
 30
0.0
 11
161.855395998337
 21
265.4648939902337
 31
0.0
  0
LINE
  5
B59
330
18
100
AcDbEntity
  8
MSL-90-S16-S-0
370
     0
100
AcDbLine
 10
161.855395998337
 20
256.0649250903145
 30
0.0
 11
161.855395998337
 21
264.9648119902337
 31
0.0
  0
LINE
  5
B5A
330
18
100
AcDbEntity
  8
MSL-90-S16-S-0
370
     0
100
AcDbLine
 10
141.255395998337
 20
264.9648119902337
 30
0.0
 11
161.855395998337
 21
264.9648119902337
 31
0.0
  0
LINE
  5
B5B
330
18
100
AcDbEntity
  8
MSL-90-S16-S-0
370
     0
100
AcDbLine
 10
161.855395998337
 20
255.8653399239905
 30
0.0
 11
167.555395998337
 21
255.8653393902337
 31
0.0
  0
LINE
  5
B5C
330
18
100
AcDbEntity
  8
MSL-90-S16-S-0
370
     0
100
AcDbLine
 10
161.855395998337
 20
255.8653399239905
 30
0.0
 11
161.855395998337
 21
256.0649250903145
 31
0.0
  0
LINE
  5
B5D
330
18
100
AcDbEntity
  8
MSL-90-S16-S-0
370
     0
100
AcDbLine
 10
141.255395998337
 20
264.9648119902337
 30
0.0
 11
141.255395998337
 21
265.4648939902337
 31
0.0
  0
LINE
  5
B5E
330
18
100
AcDbEntity
  8
MSL-90-S16-S-0
370
     0
100
AcDbLine
 10
141.255395998337
 20
256.0649250903145
 30
0.0
 11
141.255395998337
 21
264.9648119902337
 31
0.0
  0
ARC
  5
B5F
330
18
100
AcDbEntity
  8
MSL-90-S16-S-0
370
     0
100
AcDbCircle
 10
134.755395998337
 20
263.8646725902337
 30
0.0
 40
0.2
100
AcDbArc
 50
90.0
 51
180.0
  0
LINE
  5
B60
330
18
100
AcDbEntity
  8
MSL-90-S16-S-0
370
     0
100
AcDbLine
 10
135.555395998337
 20
264.0646725902337
 30
0.0
 11
134.755395998337
 21
264.0646725902337
 31
0.0
  0
LINE
  5
B61
330
18
100
AcDbEntity
  8
MSL-90-S16-S-0
370
     0
100
AcDbLine
 10
141.255395998337
 20
255.8653396571118
 30
0.0
 11
141.255395998337
 21
256.0649250903145
 31
0.0
  0
LINE
  5
B62
330
18
100
AcDbEntity
  8
MSL-90-S16-S-0
370
     0
100
AcDbLine
 10
141.255395998337
 20
255.4646731902337
 30
0.0
 11
141.255395998337
 21
255.8653396571118
 31
0.0
  0
LINE
  5
B63
330
18
100
AcDbEntity
  8
MSL-90-S16-S-0
370
     0
100
AcDbLine
 10
141.255395998337
 20
256.0649250903145
 30
0.0
 11
161.855395998337
 21
256.0649250903145
 31
0.0
  0
LINE
  5
B64
330
18
100
AcDbEntity
  8
MSL-90-S16-S-0
370
     0
100
AcDbLine
 10
141.255395998337
 20
255.4646731902337
 30
0.0
 11
167.555395998337
 21
255.4646731902337
 31
0.0
  0
LINE
  5
B65
330
18
100
AcDbEntity
  8
MSL-90-S16-S-0
370
     0
100
AcDbLine
 10
167.555395998337
 20
260.8646737902337
 30
0.0
 11
168.355395998337
 21
260.8646737902337
 31
0.0
  0
LINE
  5
B66
330
18
100
AcDbEntity
  8
MSL-90-S16-S-0
370
     0
100
AcDbLine
 10
167.555395998337
 20
264.2646159902337
 30
0.0
 11
167.555395998337
 21
264.7646689902337
 31
0.0
  0
LINE
  5
B67
330
18
100
AcDbEntity
  8
MSL-90-S16-S-0
370
     0
100
AcDbLine
 10
167.555395998337
 20
255.4653145897751
 30
0.0
 11
167.555395998337
 21
255.8653393902337
 31
0.0
  0
LINE
  5
B68
330
18
100
AcDbEntity
  8
MSL-90-S16-S-0
370
     0
100
AcDbLine
 10
167.555395998337
 20
255.8653393902337
 30
0.0
 11
167.555395998337
 21
264.2646159902337
 31
0.0
  0
LINE
  5
B69
330
18
100
AcDbEntity
  8
MSL-90-S16-S-0
370
     0
100
AcDbLine
 10
167.555395998337
 20
264.7646689902337
 30
0.0
 11
168.055395998337
 21
264.7646689902337
 31
0.0
  0
LINE
  5
B6A
330
18
100
AcDbEntity
  8
MSL-90-S16-S-0
370
     0
100
AcDbLine
 10
167.555395998337
 20
255.4653145897751
 30
0.0
 11
167.555395998337
 21
255.4646731902337
 31
0.0
  0
LINE
  5
B6B
330
18
100
AcDbEntity
  8
MSL-90-S16-S-0
370
     0
100
AcDbLine
 10
167.555395998337
 20
260.7146693902337
 30
0.0
 11
168.055395998337
 21
260.7146693902337
 31
0.0
  0
LINE
  5
B6C
330
18
100
AcDbEntity
  8
MSL-90-S16-S-0
370
     0
100
AcDbLine
 10
167.555395998337
 20
255.4646731902337
 30
0.0
 11
168.055395998337
 21
255.4646731902337
 31
0.0
  0
LINE
  5
B6D
330
18
100
AcDbEntity
  8
MSL-90-S16-S-0
370
     0
100
AcDbLine
 10
135.555395998337
 20
264.7646689902336
 30
0.0
 11
135.555395998337
 21
264.2646159902337
 31
0.0
  0
LINE
  5
B6E
330
18
100
AcDbEntity
  8
MSL-90-S16-S-0
370
     0
100
AcDbLine
 10
135.555395998337
 20
255.4646731902337
 30
0.0
 11
135.055395998337
 21
255.4646731902337
 31
0.0
  0
LINE
  5
B6F
330
18
100
AcDbEntity
  8
MSL-90-S16-S-0
370
     0
100
AcDbLine
 10
135.555395998337
 20
264.2646159902337
 30
0.0
 11
135.555395998337
 21
255.8653393902337
 31
0.0
  0
LINE
  5
B70
330
18
100
AcDbEntity
  8
MSL-90-S16-S-0
370
     0
100
AcDbLine
 10
141.255395998337
 20
264.7646689902336
 30
0.0
 11
135.555395998337
 21
264.7646689902336
 31
0.0
  0
LINE
  5
B71
330
18
100
AcDbEntity
  8
MSL-90-S16-S-0
370
     0
100
AcDbLine
 10
141.255395998337
 20
264.2646159902337
 30
0.0
 11
135.555395998337
 21
264.2646159902337
 31
0.0
  0
LINE
  5
B72
330
18
100
AcDbEntity
  8
MSL-90-S16-S-0
370
     0
100
AcDbLine
 10
141.255395998337
 20
255.4646731902337
 30
0.0
 11
135.555395998337
 21
255.4646731902337
 31
0.0
  0
LINE
  5
B73
330
18
100
AcDbEntity
  8
MSL-90-S16-S-0
370
     0
100
AcDbLine
 10
141.255395998337
 20
255.8653396571118
 30
0.0
 11
135.555395998337
 21
255.8653393902337
 31
0.0
  0
LINE
  5
B74
330
18
100
AcDbEntity
  8
MSL-90-S16-S-0
370
     0
100
AcDbLine
 10
168.055395998337
 20
264.0646725902337
 30
0.0
 11
168.055395998337
 21
264.7646689902337
 31
0.0
  0
LINE
  5
B75
330
18
100
AcDbEntity
  8
MSL-90-S16-S-0
370
     0
100
AcDbLine
 10
168.055395998337
 20
260.7146693902337
 30
0.0
 11
168.055395998337
 21
260.8646737902337
 31
0.0
  0
LINE
  5
B76
330
18
100
AcDbEntity
  8
MSL-90-S16-S-0
370
     0
100
AcDbLine
 10
168.055395998337
 20
255.4646731902337
 30
0.0
 11
168.055395998337
 21
260.7146693902337
 31
0.0
  0
LINE
  5
B77
330
18
100
AcDbEntity
  8
MSL-90-S16-S-0
370
     0
100
AcDbLine
 10
168.5553959983369
 20
261.964676867
 30
0.0
 11
169.055395998337
 21
261.464676867
 31
0.0
  0
LINE
  5
B78
330
18
100
AcDbEntity
  8
MSL-90-S16-S-0
370
     0
100
AcDbLine
 10
161.855395998337
 20
264.7646689902337
 30
0.0
 11
167.555395998337
 21
264.7646689902337
 31
0.0
  0
LINE
  5
B79
330
18
100
AcDbEntity
  8
MSL-90-S16-S-0
370
     0
100
AcDbLine
 10
134.5553959983369
 20
261.9646768669999
 30
0.0
 11
134.055395998337
 21
261.4646768669999
 31
0.0
  0
LINE
  5
B7A
330
18
100
AcDbEntity
  8
MSL-90-S16-S-0
370
     0
100
AcDbLine
 10
135.555395998337
 20
255.8653393902337
 30
0.0
 11
135.555395998337
 21
255.4653145897751
 31
0.0
  0
LINE
  5
B7B
330
18
100
AcDbEntity
  8
MSL-90-S16-S-0
370
     0
100
AcDbLine
 10
135.555395998337
 20
264.7646689902336
 30
0.0
 11
135.055395998337
 21
264.7646689902336
 31
0.0
  0
LINE
  5
B7C
330
18
100
AcDbEntity
  8
MSL-90-S16-S-0
370
     0
100
AcDbLine
 10
135.555395998337
 20
260.7146693902337
 30
0.0
 11
135.055395998337
 21
260.7146693902337
 31
0.0
  0
LINE
  5
B7D
330
18
100
AcDbEntity
  8
MSL-90-S16-S-0
370
     0
100
AcDbLine
 10
161.855395998337
 20
264.2646159902337
 30
0.0
 11
167.555395998337
 21
264.2646159902337
 31
0.0
  0
ARC
  5
B7E
330
18
100
AcDbEntity
  8
MSL-90-S16-S-0
370
     0
100
AcDbCircle
 10
168.355395998337
 20
261.0646737902337
 30
0.0
 40
0.2
100
AcDbArc
 50
270.0
 51
0.0
  0
LINE
  5
B7F
330
18
100
AcDbEntity
  8
MSL-90-S16-S-0
370
     0
100
AcDbLine
 10
121.0553959983369
 20
267.4648939902336
 30
0.0
 11
134.0553959983369
 21
267.4648939902338
 31
0.0
  0
LINE
  5
B80
330
18
100
AcDbEntity
  8
MSL-90-S16-S-0
370
     0
100
AcDbLine
 10
134.055395998337
 20
289.4648939902337
 30
0.0
 11
124.055395998337
 21
289.4648939902337
 31
0.0
  0
LINE
  5
B83
330
18
100
AcDbEntity
  8
MSL-90-S16-S-0
370
     0
100
AcDbLine
 10
134.055395998337
 20
273.9648939902337
 30
0.0
 11
124.0553959983369
 21
273.9648939902336
 31
0.0
  0
LINE
  5
B84
330
18
100
AcDbEntity
  8
MSL-90-S16-S-0
370
     0
100
AcDbLine
 10
124.0553959983369
 20
274.4648939902337
 30
0.0
 11
134.0553959983369
 21
274.4648939902337
 31
0.0
  0
LINE
  5
B85
330
18
100
AcDbEntity
  8
MSL-90-S16-S-0
370
     0
100
AcDbLine
 10
124.0553959983369
 20
289.9648939902337
 30
0.0
 11
134.0553959983369
 21
289.9648939902337
 31
0.0
  0
LINE
  5
B86
330
18
100
AcDbEntity
  8
MSL-90-S16-S-0
370
     0
100
AcDbLine
 10
134.0553959983369
 20
266.9648939902337
 30
0.0
 11
121.0553959983369
 21
266.9648939902337
 31
0.0
  0
LINE
  5
B87
330
18
100
AcDbEntity
  8
MSL-90-S16-S-0
370
     0
100
AcDbLine
 10
124.0553959983369
 20
289.9648939902337
 30
0.0
 11
124.0553959983369
 21
273.9648939902336
 31
0.0
  0
LINE
  5
B88
330
18
100
AcDbEntity
  8
MSL-90-S16-S-0
370
     0
100
AcDbLine
 10
294.055395998337
 20
271.9648939902338
 30
0.0
 11
284.055395998337
 21
271.9648939902338
 31
0.0
  0
LINE
  5
B8C
330
18
100
AcDbEntity
  8
MSL-90-S16-S-0
370
     0
100
AcDbLine
 10
284.055395998337
 20
272.4648939902337
 30
0.0
 11
294.055395998337
 21
272.4648939902337
 31
0.0
  0
LINE
  5
B8D
330
18
100
AcDbEntity
  8
MSL-90-S16-S-0
370
     0
100
AcDbLine
 10
294.055395998337
 20
289.4648939902337
 30
0.0
 11
284.055395998337
 21
289.4648939902337
 31
0.0
  0
LINE
  5
B8E
330
18
100
AcDbEntity
  8
MSL-90-S16-S-0
370
     0
100
AcDbLine
 10
284.055395998337
 20
289.9648939902338
 30
0.0
 11
294.055395998337
 21
289.9648939902338
 31
0.0
  0
LINE
  5
B94
330
18
100
AcDbEntity
  8
MSL-90-S16-S-0
370
     0
100
AcDbLine
 10
121.0553959983369
 20
289.9648939902212
 30
0.0
 11
121.0553959983369
 21
205.4648939902338
 31
0.0
  0
LINE
  5
B96
330
18
100
AcDbEntity
  8
MSL-90-S16-S-0
370
     0
100
AcDbLine
 10
127.0553959983368
 20
259.9649018402319
 30
0.0
 11
127.0553959983368
 21
265.4648939902212
 31
0.0
  0
LINE
  5
B97
330
18
100
AcDbEntity
  8
MSL-90-S16-S-0
370
     0
100
AcDbLine
 10
121.0553959983369
 20
265.4648939902212
 30
0.0
 11
127.0553959983368
 21
265.4648939902212
 31
0.0
  0
LINE
  5
B9A
330
18
100
AcDbEntity
  8
MSL-90-S16-S-0
370
     0
100
AcDbLine
 10
134.055395998337
 20
261.464676867
 30
0.0
 11
134.055395998337
 21
265.4648939902212
 31
0.0
  0
LINE
  5
B9B
330
18
100
AcDbEntity
  8
MSL-90-S16-S-0
370
     0
100
AcDbLine
 10
127.0553959983368
 20
265.4648939902212
 30
0.0
 11
134.055395998337
 21
265.4648939902212
 31
0.0
  0
LINE
  5
B9C
330
18
100
AcDbEntity
  8
MSL-90-S16-S-0
370
     0
100
AcDbLine
 10
127.0553959983368
 20
259.9649018402319
 30
0.0
 11
127.0553959983368
 21
265.4648939902212
 31
0.0
  0
LINE
  5
BBC
330
18
100
AcDbEntity
  8
MSL-90-S16-S-0
370
     0
100
AcDbLine
 10
411.0553959983369
 20
286.9648939902212
 30
0.0
 11
397.055395998337
 21
286.9648939902212
 31
0.0
  0
LINE
  5
BBD
330
18
100
AcDbEntity
  8
MSL-90-S16-S-0
370
     0
100
AcDbLine
 10
397.055395998337
 20
205.9648939902212
 30
0.0
 11
411.0553959983369
 21
205.9648939902212
 31
0.0
  0
LINE
  5
BBE
330
18
100
AcDbEntity
  8
MSL-90-S16-S-0
370
     0
100
AcDbLine
 10
411.0553959983369
 20
205.9648939902212
 30
0.0
 11
411.0553959983369
 21
286.9648939902212
 31
0.0
  0
LINE
  5
BBF
330
18
100
AcDbEntity
  8
MSL-90-S16-S-0
370
     0
100
AcDbLine
 10
411.0553959983369
 20
289.9648939902212
 30
0.0
 11
411.0553959983369
 21
286.9648939902212
 31
0.0
  0
LINE
  5
BC0
330
18
100
AcDbEntity
  8
MSL-90-S16-S-0
370
     0
100
AcDbLine
 10
397.055395998337
 20
289.9648939902212
 30
0.0
 11
411.0553959983368
 21
289.9648939902212
 31
0.0
  0
LINE
  5
BC1
330
18
100
AcDbEntity
  8
MSL-90-S16-S-0
370
     0
100
AcDbLine
 10
397.055395998337
 20
205.4648939902338
 30
0.0
 11
397.055395998337
 21
289.9648939902212
 31
0.0
  0
LINE
  5
BC2
330
18
100
AcDbEntity
  8
MSL-90-S16-S-0
370
     0
100
AcDbLine
 10
199.0553959983369
 20
259.9649018402319
 30
0.0
 11
199.0553959983369
 21
263.4648939902338
 31
0.0
  0
LINE
  5
BC3
330
18
100
AcDbEntity
  8
MSL-90-S16-S-0
370
     0
100
AcDbLine
 10
199.0553959983369
 20
263.4648939902338
 30
0.0
 11
199.0553959983369
 21
265.4648939902338
 31
0.0
  0
LINE
  5
BC4
330
18
100
AcDbEntity
  8
MSL-90-S16-S-0
370
     0
100
AcDbLine
 10
253.955395998337
 20
265.4648939902338
 30
0.0
 11
253.955395998337
 21
264.7646689902339
 31
0.0
  0
LINE
  5
BC5
330
18
100
AcDbEntity
  8
MSL-90-S16-S-0
370
     0
100
AcDbLine
 10
199.0553959983369
 20
263.4648939902338
 30
0.0
 11
249.5553959983369
 21
263.4648939902338
 31
0.0
  0
LINE
  5
BC6
330
18
100
AcDbEntity
  8
MSL-90-S16-S-0
370
     0
100
AcDbLine
 10
253.955395998337
 20
264.7646689902339
 30
0.0
 11
253.955395998337
 21
265.4648939902338
 31
0.0
  0
LINE
  5
BC7
330
18
100
AcDbEntity
  8
MSL-90-S16-S-0
370
     0
100
AcDbLine
 10
191.0553959983369
 20
265.4648939902337
 30
0.0
 11
191.0553959983369
 21
259.9649018402319
 31
0.0
  0
LINE
  5
BC8
330
18
100
AcDbEntity
  8
MSL-90-S16-S-0
370
     0
100
AcDbLine
 10
186.0553959983369
 20
265.4648939902337
 30
0.0
 11
186.0553959983369
 21
259.9649018402319
 31
0.0
  0
LINE
  5
C8E
330
18
100
AcDbEntity
  8
MSL-90-S16-S-0
100
AcDbLine
 10
294.055395998337
 20
289.9648939902338
 30
0.0
 11
294.055395998337
 21
271.9648939902338
 31
0.0
  0
LINE
  5
C9A
330
18
100
AcDbEntity
  8
MSL-90-S16-S-0
100
AcDbLine
 10
436.4354670418908
 20
170.0091503041149
 30
0.0
 11
539.4354670418908
 21
170.0091503041149
 31
0.0
  0
LINE
  5
C9B
330
18
100
AcDbEntity
  8
MSL-90-S16-S-0
100
AcDbLine
 10
436.4354670418908
 20
166.0122916936168
 30
0.0
 11
539.4354670418908
 21
166.0122916936168
 31
0.0
  0
LINE
  5
C9C
330
18
100
AcDbEntity
  8
MSL-90-S16-S-0
100
AcDbLine
 10
436.4354670418908
 20
165.2188926943525
 30
0.0
 11
539.4354670418908
 21
165.2188926943525
 31
0.0
  0
LINE
  5
C9D
330
18
100
AcDbEntity
  8
MSL-90-S16-S-0
100
AcDbLine
 10
436.4354670418908
 20
154.7991832041149
 30
0.0
 11
539.4354670418908
 21
154.7991832041149
 31
0.0
  0
LINE
  5
C9E
330
18
100
AcDbEntity
  8
MSL-90-S16-S-0
100
AcDbLine
 10
436.4354670418908
 20
154.0093260190853
 30
0.0
 11
539.4354670418908
 21
154.0093260190853
 31
0.0
  0
LINE
  5
C9F
330
18
100
AcDbEntity
  8
MSL-90-S16-S-0
100
AcDbLine
 10
436.4354670418909
 20
96.01229169361683
 30
0.0
 11
539.4354670418908
 21
96.01229169361683
 31
0.0
  0
LINE
  5
CA0
330
18
100
AcDbEntity
  8
MSL-90-S16-S-0
100
AcDbLine
 10
436.4354670418909
 20
95.21889269435247
 30
0.0
 11
539.4354670418908
 21
95.21889269435247
 31
0.0
  0
LINE
  5
CA1
330
18
100
AcDbEntity
  8
MSL-90-S16-S-0
100
AcDbLine
 10
436.4354670418909
 20
84.7991832041149
 30
0.0
 11
539.4354670418908
 21
84.7991832041149
 31
0.0
  0
LINE
  5
CA2
330
18
100
AcDbEntity
  8
MSL-90-S16-S-0
100
AcDbLine
 10
436.4354670418909
 20
84.0056370150204
 30
0.0
 11
539.4354670418908
 21
84.0056370150204
 31
0.0
  0
LINE
  5
CA3
330
18
100
AcDbEntity
  8
MSL-90-S16-S-0
100
AcDbLine
 10
539.4354670418908
 20
80.00915030411494
 30
0.0
 11
436.4354670418909
 21
80.00915030411482
 31
0.0
  0
LINE
  5
CA6
330
18
100
AcDbEntity
  8
MSL-90-S16-S-7A
100
AcDbLine
 10
432.5430004143639
 20
160.0091503041149
 30
0.0
 11
544.1080458240735
 21
160.0091503041149
 31
0.0
  0
LINE
  5
CA7
330
18
100
AcDbEntity
  8
MSL-90-S16-S-7A
100
AcDbLine
 10
433.0966735816508
 20
90.00916827552803
 30
0.0
 11
543.0007006894824
 21
90.00916827552803
 31
0.0
  0
LINE
  5
CB2
330
18
100
AcDbEntity
  8
MSL-90-S16-S-7A
100
AcDbLine
 10
260.6730579105941
 20
160.0091503041149
 30
0.0
 11
269.0548895066348
 21
160.0091503041149
 31
0.0
  0
LINE
  5
CB4
330
18
100
AcDbEntity
  8
MSL-90-S16-S-0
100
AcDbLine
 10
263.4354670418909
 20
170.0091503041149
 30
0.0
 11
266.4354670418909
 21
170.0091503041149
 31
0.0
  0
LINE
  5
CB5
330
18
100
AcDbEntity
  8
MSL-90-S16-S-0
100
AcDbLine
 10
263.4354670418909
 20
166.0122916936168
 30
0.0
 11
266.4354670418909
 21
166.0122916936168
 31
0.0
  0
LINE
  5
CB6
330
18
100
AcDbEntity
  8
MSL-90-S16-S-0
100
AcDbLine
 10
263.4354670418909
 20
165.2188926943525
 30
0.0
 11
266.4354670418909
 21
165.2188926943525
 31
0.0
  0
LINE
  5
CB7
330
18
100
AcDbEntity
  8
MSL-90-S16-S-0
100
AcDbLine
 10
263.4354670418909
 20
154.7991832041149
 30
0.0
 11
266.4354670418909
 21
154.7991832041149
 31
0.0
  0
LINE
  5
CB8
330
18
100
AcDbEntity
  8
MSL-90-S16-S-0
100
AcDbLine
 10
263.4354670418909
 20
154.0093260190853
 30
0.0
 11
266.4354670418909
 21
154.0093260190853
 31
0.0
  0
LINE
  5
CBA
330
18
100
AcDbEntity
  8
MSL-90-S16-S-0
100
AcDbLine
 10
263.4354670418909
 20
84.00934399049843
 30
0.0
 11
266.4354670418909
 21
84.00934399049843
 31
0.0
  0
LINE
  5
CBB
330
18
100
AcDbEntity
  8
MSL-90-S16-S-0
100
AcDbLine
 10
263.4354670418909
 20
84.79920117552799
 30
0.0
 11
266.4354670418909
 21
84.79920117552799
 31
0.0
  0
LINE
  5
CBC
330
18
100
AcDbEntity
  8
MSL-90-S16-S-0
100
AcDbLine
 10
263.4354670418909
 20
95.21891066576557
 30
0.0
 11
266.4354670418909
 21
95.21891066576557
 31
0.0
  0
LINE
  5
CBD
330
18
100
AcDbEntity
  8
MSL-90-S16-S-0
100
AcDbLine
 10
263.4354670418909
 20
96.01230966502994
 30
0.0
 11
266.4354670418909
 21
96.01230966502994
 31
0.0
  0
LINE
  5
CBE
330
18
100
AcDbEntity
  8
MSL-90-S16-S-7A
100
AcDbLine
 10
260.6730579105941
 20
90.00916827552803
 30
0.0
 11
269.0548895066348
 21
90.00916827552803
 31
0.0
  0
LINE
  5
1116
330
18
100
AcDbEntity
  8
MSL-90-S16-S-7A
100
AcDbLine
 10
301.4354670418909
 20
155.0094137621731
 30
0.0
 11
401.4354670418908
 21
155.0094137621732
 31
0.0
  0
LINE
  5
1117
330
18
100
AcDbEntity
  8
MSL-90-S16-S-7A
100
AcDbLine
 10
306.4354670418909
 20
160.0094137621731
 30
0.0
 11
306.4354670418909
 21
150.0094137621731
 31
0.0
  0
LINE
  5
1118
330
18
100
AcDbEntity
  8
MSL-90-S16-S-7A
100
AcDbLine
 10
301.4354670418909
 20
95.00941376217321
 30
0.0
 11
401.4354670418908
 21
95.0094137621733
 31
0.0
  0
LINE
  5
111B
330
18
100
AcDbEntity
  8
MSL-90-S16-S-7A
100
AcDbLine
 10
328.9354670418909
 20
160.0094137621731
 30
0.0
 11
328.9354670418909
 21
150.0094137621731
 31
0.0
  0
LINE
  5
111C
330
18
100
AcDbEntity
  8
MSL-90-S16-S-7A
100
AcDbLine
 10
351.4354670418909
 20
160.0094137621731
 30
0.0
 11
351.4354670418909
 21
150.0094137621731
 31
0.0
  0
LINE
  5
111D
330
18
100
AcDbEntity
  8
MSL-90-S16-S-7A
100
AcDbLine
 10
373.9354670418909
 20
162.0094137621732
 30
0.0
 11
373.9354670418909
 21
148.0094137621732
 31
0.0
  0
LINE
  5
111E
330
18
100
AcDbEntity
  8
MSL-90-S16-S-7A
100
AcDbLine
 10
396.4354670418909
 20
160.0094137621732
 30
0.0
 11
396.4354670418909
 21
150.0094137621732
 31
0.0
  0
LINE
  5
111F
330
18
100
AcDbEntity
  8
MSL-90-S16-S-7A
100
AcDbLine
 10
396.4354670418909
 20
100.0094137621732
 30
0.0
 11
396.4354670418909
 21
90.00941376217321
 31
0.0
  0
LINE
  5
1120
330
18
100
AcDbEntity
  8
MSL-90-S16-S-7A
100
AcDbLine
 10
373.9354670418909
 20
100.0094137621732
 30
0.0
 11
373.9354670418909
 21
90.00941376217317
 31
0.0
  0
LINE
  5
1121
330
18
100
AcDbEntity
  8
MSL-90-S16-S-7A
100
AcDbLine
 10
351.435467041891
 20
100.0094137621731
 30
0.0
 11
351.435467041891
 21
90.00941376217316
 31
0.0
  0
LINE
  5
1122
330
18
100
AcDbEntity
  8
MSL-90-S16-S-7A
100
AcDbLine
 10
328.935467041891
 20
102.0094137621731
 30
0.0
 11
328.935467041891
 21
88.00941376217314
 31
0.0
  0
LINE
  5
1123
330
18
100
AcDbEntity
  8
MSL-90-S16-S-7A
100
AcDbLine
 10
306.4354670418909
 20
100.0094137621731
 30
0.0
 11
306.4354670418909
 21
90.00941376217312
 31
0.0
  0
LINE
  5
1132
330
18
100
AcDbEntity
  8
MSL-90-S16-S-3A
370
     0
100
AcDbLine
 10
465.9724024449347
 20
214.2018702970919
 30
0.0
 11
461.7940257324601
 21
210.0234935846173
 31
0.0
  0
LINE
  5
1133
330
18
100
AcDbEntity
  8
MSL-90-S16-S-3A
370
     0
100
AcDbLine
 10
461.9354470886976
 20
207.4649149408547
 30
0.0
 11
465.8354470886974
 21
207.4649149408547
 31
0.0
  0
LINE
  5
1136
330
18
100
AcDbEntity
  8
MSL-90-S16-S-3A
370
     0
100
AcDbLine
 10
461.7354470886976
 20
209.88207222838
 30
0.0
 11
461.7354470886976
 21
207.6649149408546
 31
0.0
  0
ARC
  5
1139
330
18
100
AcDbEntity
  8
MSL-90-S16-S-3A
370
     0
100
AcDbCircle
 10
461.9354470886974
 20
207.6649149408547
 30
0.0
 40
0.2
100
AcDbArc
 50
180.0
 51
270.0
  0
ARC
  5
113A
330
18
100
AcDbEntity
  8
MSL-90-S16-S-3A
370
     0
100
AcDbCircle
 10
461.9354470886974
 20
209.88207222838
 30
0.0
 40
0.2
100
AcDbArc
 50
134.9999999999885
 51
180.0
  0
LINE
  5
1142
330
18
100
AcDbEntity
  8
MSL-90-S16-S-3A
370
     0
100
AcDbLine
 10
479.2354471038395
 20
207.6649149408547
 30
0.0
 11
479.2354471038383
 21
209.88207222838
 31
0.0
  0
ARC
  5
1143
330
18
100
AcDbEntity
  8
MSL-90-S16-S-3A
370
     0
100
AcDbCircle
 10
465.8354470886974
 20
206.8649149408547
 30
0.0
 40
0.5999999999999963
100
AcDbArc
 50
0.0
 51
90.0
  0
LINE
  5
1145
330
18
100
AcDbEntity
  8
MSL-90-S16-S-3A
370
     0
100
AcDbLine
 10
466.4354470886975
 20
206.8649149408547
 30
0.0
 11
466.4354470886975
 21
205.4649139408546
 31
0.0
  0
LINE
  5
1146
330
18
100
AcDbEntity
  8
MSL-90-S16-S-3A
370
     0
100
AcDbLine
 10
475.1354470886974
 20
207.4649149408547
 30
0.0
 11
479.0354471038394
 21
207.4649149408547
 31
0.0
  0
ARC
  5
1147
330
18
100
AcDbEntity
  8
MSL-90-S16-S-3A
370
     0
100
AcDbCircle
 10
475.1354470886974
 20
206.8649149408547
 30
0.0
 40
0.6000000000000104
100
AcDbArc
 50
90.0
 51
180.0
  0
LINE
  5
1148
330
18
100
AcDbEntity
  8
MSL-90-S16-S-3A
370
     0
100
AcDbLine
 10
474.5354470886975
 20
205.4649139408546
 30
0.0
 11
474.5354470886975
 21
206.8649149408547
 31
0.0
  0
ARC
  5
114A
330
18
100
AcDbEntity
  8
MSL-90-S16-S-3A
370
     0
100
AcDbCircle
 10
479.0354471038394
 20
207.6649149408547
 30
0.0
 40
0.2
100
AcDbArc
 50
270.0
 51
0.0
  0
LINE
  5
114B
330
18
100
AcDbEntity
  8
MSL-90-S16-S-3A
370
     0
100
AcDbLine
 10
474.8570703610774
 20
214.2604489711372
 30
0.0
 11
471.4390369230293
 21
214.2604489711384
 31
0.0
  0
LINE
  5
114C
330
18
100
AcDbEntity
  8
MSL-90-S16-S-3A
370
     0
100
AcDbLine
 10
469.5318572718499
 20
214.2604489408547
 30
0.0
 11
466.1138238011719
 21
214.2604489408546
 31
0.0
  0
ARC
  5
114D
330
18
100
AcDbEntity
  8
MSL-90-S16-S-3A
370
     0
100
AcDbCircle
 10
466.1138238011719
 20
214.0604489408547
 30
0.0
 40
0.2
100
AcDbArc
 50
90.0
 51
135.0000000000057
  0
LINE
  5
114E
330
18
100
AcDbEntity
  8
MSL-90-S16-S-3A
370
     0
100
AcDbLine
 10
471.3390369579981
 20
214.2872438701923
 30
0.0
 11
470.5854470886975
 21
214.722328981233
 31
0.0
  0
ARC
  5
114F
330
18
100
AcDbEntity
  8
MSL-90-S16-S-3A
370
     0
100
AcDbCircle
 10
471.4390369230293
 20
214.4604489711384
 30
0.0
 40
0.2
100
AcDbArc
 50
240.0000115675764
 51
269.9999999999755
  0
ARC
  5
1150
330
18
100
AcDbEntity
  8
MSL-90-S16-S-3A
370
     0
100
AcDbCircle
 10
469.5318572718499
 20
214.4604489408547
 30
0.0
 40
0.2
100
AcDbArc
 50
270.0
 51
299.9999884324306
  0
LINE
  5
1151
330
18
100
AcDbEntity
  8
MSL-90-S16-S-3A
370
     0
100
AcDbLine
 10
470.3854471586351
 20
214.722328981233
 30
0.0
 11
469.6318572368814
 21
214.2872438399086
 31
0.0
  0
ARC
  5
1152
330
18
100
AcDbEntity
  8
MSL-90-S16-S-3A
370
     0
100
AcDbCircle
 10
470.4854471236663
 20
214.5491238802871
 30
0.0
 40
0.2000000000000035
100
AcDbArc
 50
60.00001156756829
 51
119.9999884324317
  0
LINE
  5
1153
330
18
100
AcDbEntity
  8
MSL-90-S16-S-3A
370
     0
100
AcDbLine
 10
479.1768684600756
 20
210.0234935846173
 30
0.0
 11
474.9984917173146
 21
214.2018703273746
 31
0.0
  0
ARC
  5
1155
330
18
100
AcDbEntity
  8
MSL-90-S16-S-3A
370
     0
100
AcDbCircle
 10
479.0354471038383
 20
209.8820722283799
 30
0.0
 40
0.2
100
AcDbArc
 50
0.0
 51
45.00000000003453
  0
ARC
  5
1156
330
18
100
AcDbEntity
  8
MSL-90-S16-S-3A
370
     0
100
AcDbCircle
 10
474.8570703610774
 20
214.0604489711372
 30
0.0
 40
0.2
100
AcDbArc
 50
45.00000000003453
 51
89.99999999998369
  0
LINE
  5
1196
330
18
100
AcDbEntity
  8
MSL-90-S16-S-3A
370
     0
100
AcDbLine
 10
532.9724024600803
 20
214.2018703273746
 30
0.0
 11
528.7940257173194
 21
210.0234935846174
 31
0.0
  0
LINE
  5
1197
330
18
100
AcDbEntity
  8
MSL-90-S16-S-3A
370
     0
100
AcDbLine
 10
528.9354470735555
 20
207.4649149408547
 30
0.0
 11
532.8354470886973
 21
207.4649149408547
 31
0.0
  0
LINE
  5
119A
330
18
100
AcDbEntity
  8
MSL-90-S16-S-3A
370
     0
100
AcDbLine
 10
528.7354470735566
 20
209.8820722283799
 30
0.0
 11
528.7354470735555
 21
207.6649149408547
 31
0.0
  0
ARC
  5
119E
330
18
100
AcDbEntity
  8
MSL-90-S16-S-3A
370
     0
100
AcDbCircle
 10
528.9354470735555
 20
207.6649149408547
 30
0.0
 40
0.2
100
AcDbArc
 50
179.9999999999837
 51
270.0
  0
ARC
  5
11A4
330
18
100
AcDbEntity
  8
MSL-90-S16-S-3A
370
     0
100
AcDbCircle
 10
528.9354470735564
 20
209.8820722283799
 30
0.0
 40
0.2
100
AcDbArc
 50
134.9999999999683
 51
180.0
  0
LINE
  5
11A8
330
18
100
AcDbEntity
  8
MSL-90-S16-S-3A
370
     0
100
AcDbLine
 10
546.2354470886975
 20
207.6649149408547
 30
0.0
 11
546.2354470886975
 21
209.8820722283801
 31
0.0
  0
LINE
  5
11A9
330
18
100
AcDbEntity
  8
MSL-90-S16-S-3A
370
     0
100
AcDbLine
 10
533.4354470886975
 20
206.8649149408547
 30
0.0
 11
533.4354470886975
 21
205.4649139408546
 31
0.0
  0
ARC
  5
11AA
330
18
100
AcDbEntity
  8
MSL-90-S16-S-3A
370
     0
100
AcDbCircle
 10
532.8354470886973
 20
206.8649149408547
 30
0.0
 40
0.6000000000000104
100
AcDbArc
 50
0.0
 51
90.0
  0
LINE
  5
11AC
330
18
100
AcDbEntity
  8
MSL-90-S16-S-3A
370
     0
100
AcDbLine
 10
542.1354470886975
 20
207.4649149408547
 30
0.0
 11
546.0354470886974
 21
207.4649149408547
 31
0.0
  0
ARC
  5
11AE
330
18
100
AcDbEntity
  8
MSL-90-S16-S-3A
370
     0
100
AcDbCircle
 10
542.1354470886975
 20
206.8649149408547
 30
0.0
 40
0.5999999999999963
100
AcDbArc
 50
90.0
 51
180.0
  0
LINE
  5
11AF
330
18
100
AcDbEntity
  8
MSL-90-S16-S-3A
370
     0
100
AcDbLine
 10
541.5354470886974
 20
205.4649139408546
 30
0.0
 11
541.5354470886974
 21
206.8649149408547
 31
0.0
  0
ARC
  5
11B0
330
18
100
AcDbEntity
  8
MSL-90-S16-S-3A
370
     0
100
AcDbCircle
 10
546.0354470886974
 20
207.6649149408547
 30
0.0
 40
0.2
100
AcDbArc
 50
270.0000000000041
 51
0.0
  0
LINE
  5
11B1
330
18
100
AcDbEntity
  8
MSL-90-S16-S-3A
370
     0
100
AcDbLine
 10
541.8570703762228
 20
214.2604489408546
 30
0.0
 11
538.4390369055449
 21
214.2604489408547
 31
0.0
  0
LINE
  5
11B2
330
18
100
AcDbEntity
  8
MSL-90-S16-S-3A
370
     0
100
AcDbLine
 10
536.5318572543657
 20
214.2604489711385
 30
0.0
 11
533.1138238163176
 21
214.2604489711373
 31
0.0
  0
ARC
  5
11B3
330
18
100
AcDbEntity
  8
MSL-90-S16-S-3A
370
     0
100
AcDbCircle
 10
533.1138238163176
 20
214.0604489711372
 30
0.0
 40
0.2
100
AcDbArc
 50
90.00000000002442
 51
134.9999999999683
  0
ARC
  5
11B4
330
18
100
AcDbEntity
  8
MSL-90-S16-S-3A
370
     0
100
AcDbCircle
 10
538.4390369055449
 20
214.4604489408547
 30
0.0
 40
0.2
100
AcDbArc
 50
240.0000115675764
 51
270.0
  0
LINE
  5
11B5
330
18
100
AcDbEntity
  8
MSL-90-S16-S-3A
370
     0
100
AcDbLine
 10
537.3854470886975
 20
214.722328981233
 30
0.0
 11
536.6318572193969
 21
214.2872438701923
 31
0.0
  0
ARC
  5
11B6
330
18
100
AcDbEntity
  8
MSL-90-S16-S-3A
370
     0
100
AcDbCircle
 10
537.4854470537287
 20
214.549123880287
 30
0.0
 40
0.2000000000000034
100
AcDbArc
 50
60.00001156756126
 51
119.9999884324352
  0
LINE
  5
11B7
330
18
100
AcDbEntity
  8
MSL-90-S16-S-3A
370
     0
100
AcDbLine
 10
538.3390369405137
 20
214.2872438399086
 30
0.0
 11
537.5854470187599
 21
214.722328981233
 31
0.0
  0
ARC
  5
11B8
330
18
100
AcDbEntity
  8
MSL-90-S16-S-3A
370
     0
100
AcDbCircle
 10
536.5318572543655
 20
214.4604489711384
 30
0.0
 40
0.2
100
AcDbArc
 50
270.0000000000244
 51
299.9999884324235
  0
LINE
  5
11B9
330
18
100
AcDbEntity
  8
MSL-90-S16-S-3A
370
     0
100
AcDbLine
 10
546.1768684449347
 20
210.0234935846173
 30
0.0
 11
541.9984917324601
 21
214.2018702970919
 31
0.0
  0
ARC
  5
11BA
330
18
100
AcDbEntity
  8
MSL-90-S16-S-3A
370
     0
100
AcDbCircle
 10
546.0354470886974
 20
209.88207222838
 30
0.0
 40
0.2
100
AcDbArc
 50
0.0
 51
45.00000000001151
  0
ARC
  5
11BB
330
18
100
AcDbEntity
  8
MSL-90-S16-S-3A
370
     0
100
AcDbCircle
 10
541.8570703762228
 20
214.0604489408546
 30
0.0
 40
0.2
100
AcDbArc
 50
44.99999999999136
 51
90.0
  0
LINE
  5
1218
330
18
100
AcDbEntity
  8
MSL-90-S16-S-7A
 48
2.0
100
AcDbLine
 10
164.0553959983369
 20
293.7920129902337
 30
0.0
 11
164.0553959983369
 21
270.8866559902339
 31
0.0
  0
LINE
  5
1219
330
18
100
AcDbEntity
  8
MSL-90-S16-S-7A
 48
2.0
100
AcDbLine
 10
186.5553959983369
 20
293.7920129902337
 30
0.0
 11
186.5553959983369
 21
270.8866559902339
 31
0.0
  0
LINE
  5
121A
330
18
100
AcDbEntity
  8
MSL-90-S16-S-7A
 48
2.0
100
AcDbLine
 10
231.555395998337
 20
293.7920129902337
 30
0.0
 11
231.5553959983369
 21
264.7646689902336
 31
0.0
  0
LINE
  5
121B
330
18
100
AcDbEntity
  8
MSL-90-S16-S-7A
 48
2.0
100
AcDbLine
 10
209.055395998337
 20
293.7920129902337
 30
0.0
 11
209.055395998337
 21
264.7646689902336
 31
0.0
  0
LINE
  5
121C
330
18
100
AcDbEntity
  8
MSL-90-S16-S-7A
 48
2.0
100
AcDbLine
 10
186.5553959983369
 20
293.7920129902337
 30
0.0
 11
186.5553959983369
 21
264.7646689902336
 31
0.0
  0
LINE
  5
121D
330
18
100
AcDbEntity
  8
MSL-90-S16-S-7A
 48
2.0
100
AcDbLine
 10
164.0553959983372
 20
293.7920129902338
 30
0.0
 11
164.0553959983372
 21
264.7646689902337
 31
0.0
  0
LINE
  5
121E
330
18
100
AcDbEntity
  8
MSL-90-S16-S-7A
 48
2.0
100
AcDbLine
 10
254.055395998337
 20
293.7920129902337
 30
0.0
 11
254.0553959983369
 21
264.7646689902336
 31
0.0
  0
LINE
  5
121F
330
18
100
AcDbEntity
  8
MSL-90-S16-S-0
 48
2.0
100
AcDbLine
 10
181.5553959983369
 20
291.9648939902337
 30
0.0
 11
191.5553959983368
 21
291.9648939902336
 31
0.0
  0
LINE
  5
1220
330
18
100
AcDbEntity
  8
MSL-90-S16-S-0
 48
2.0
100
AcDbLine
 10
191.5553959983368
 20
291.9648939902336
 30
0.0
 11
191.0553959983368
 21
292.4648939902336
 31
0.0
  0
LINE
  5
1221
330
18
100
AcDbEntity
  8
MSL-90-S16-S-0
 48
2.0
100
AcDbLine
 10
191.0553959983368
 20
292.4648939902336
 30
0.0
 11
182.0553959983369
 21
292.4648939902337
 31
0.0
  0
LINE
  5
1222
330
18
100
AcDbEntity
  8
MSL-90-S16-S-0
 48
2.0
100
AcDbLine
 10
181.5553959983369
 20
291.9648939902337
 30
0.0
 11
181.5553959983369
 21
290.4648939902337
 31
0.0
  0
LINE
  5
1223
330
18
100
AcDbEntity
  8
MSL-90-S16-S-0
 48
2.0
100
AcDbLine
 10
182.0553959983369
 20
292.4648939902337
 30
0.0
 11
181.5553959983369
 21
291.9648939902337
 31
0.0
  0
LINE
  5
1224
330
18
100
AcDbEntity
  8
MSL-90-S16-S-0
 48
2.0
100
AcDbLine
 10
191.5553959983368
 20
290.4648939902337
 30
0.0
 11
191.5553959983368
 21
291.9648939902336
 31
0.0
  0
LINE
  5
1225
330
18
100
AcDbEntity
  8
MSL-90-S16-S-0
 48
2.0
100
AcDbLine
 10
236.0553959983369
 20
292.4648939902336
 30
0.0
 11
227.055395998337
 21
292.4648939902337
 31
0.0
  0
LINE
  5
1226
330
18
100
AcDbEntity
  8
MSL-90-S16-S-0
 48
2.0
100
AcDbLine
 10
226.555395998337
 20
291.9648939902337
 30
0.0
 11
236.5553959983369
 21
291.9648939902336
 31
0.0
  0
LINE
  5
1227
330
18
100
AcDbEntity
  8
MSL-90-S16-S-0
 48
2.0
100
AcDbLine
 10
226.555395998337
 20
291.9648939902337
 30
0.0
 11
226.5553959983369
 21
290.4648939902337
 31
0.0
  0
LINE
  5
1228
330
18
100
AcDbEntity
  8
MSL-90-S16-S-0
 48
2.0
100
AcDbLine
 10
227.055395998337
 20
292.4648939902337
 30
0.0
 11
226.555395998337
 21
291.9648939902337
 31
0.0
  0
LINE
  5
1229
330
18
100
AcDbEntity
  8
MSL-90-S16-S-0
 48
2.0
100
AcDbLine
 10
236.5553959983369
 20
290.4648939902337
 30
0.0
 11
236.5553959983369
 21
291.9648939902336
 31
0.0
  0
LINE
  5
122A
330
18
100
AcDbEntity
  8
MSL-90-S16-S-0
 48
2.0
100
AcDbLine
 10
236.5553959983369
 20
291.9648939902336
 30
0.0
 11
236.0553959983369
 21
292.4648939902336
 31
0.0
  0
LINE
  5
123C
330
18
100
AcDbEntity
  8
MSL-90-S16-S-0
 48
2.0
100
AcDbLine
 10
478.4354670418905
 20
292.2648939902462
 30
0.0
 11
469.4354670418906
 21
292.2648939902462
 31
0.0
  0
LINE
  5
123D
330
18
100
AcDbEntity
  8
MSL-90-S16-S-0
 48
2.0
100
AcDbLine
 10
468.9354670418906
 20
291.7648939902462
 30
0.0
 11
478.9354670418905
 21
291.7648939902461
 31
0.0
  0
LINE
  5
123E
330
18
100
AcDbEntity
  8
MSL-90-S16-S-0
 48
2.0
100
AcDbLine
 10
468.9354670418906
 20
291.7648939902462
 30
0.0
 11
468.9354670418906
 21
290.2648939902462
 31
0.0
  0
LINE
  5
123F
330
18
100
AcDbEntity
  8
MSL-90-S16-S-0
 48
2.0
100
AcDbLine
 10
469.4354670418906
 20
292.2648939902462
 30
0.0
 11
468.9354670418906
 21
291.7648939902462
 31
0.0
  0
LINE
  5
1240
330
18
100
AcDbEntity
  8
MSL-90-S16-S-0
 48
2.0
100
AcDbLine
 10
478.9354670418905
 20
290.2648939902462
 30
0.0
 11
478.9354670418905
 21
291.7648939902461
 31
0.0
  0
LINE
  5
1241
330
18
100
AcDbEntity
  8
MSL-90-S16-S-0
 48
2.0
100
AcDbLine
 10
478.9354670418905
 20
291.7648939902461
 30
0.0
 11
478.4354670418905
 21
292.2648939902462
 31
0.0
  0
LINE
  5
1242
330
18
100
AcDbEntity
  8
MSL-90-S16-S-7A
 48
2.0
100
AcDbLine
 10
473.9354670418906
 20
295.7901161219999
 30
0.0
 11
473.9354670418906
 21
283.5635133523344
 31
0.0
  0
LINE
  5
1243
330
18
100
AcDbEntity
  8
MSL-90-S16-S-0
 48
2.0
100
AcDbLine
 10
528.9354670418906
 20
291.7648939902462
 30
0.0
 11
538.9354670418905
 21
291.7648939902461
 31
0.0
  0
LINE
  5
1244
330
18
100
AcDbEntity
  8
MSL-90-S16-S-0
 48
2.0
100
AcDbLine
 10
538.4354670418905
 20
292.2648939902462
 30
0.0
 11
529.4354670418906
 21
292.2648939902462
 31
0.0
  0
LINE
  5
1245
330
18
100
AcDbEntity
  8
MSL-90-S16-S-0
 48
2.0
100
AcDbLine
 10
529.4354670418906
 20
292.2648939902462
 30
0.0
 11
528.9354670418906
 21
291.7648939902462
 31
0.0
  0
LINE
  5
1246
330
18
100
AcDbEntity
  8
MSL-90-S16-S-0
 48
2.0
100
AcDbLine
 10
528.9354670418906
 20
291.7648939902462
 30
0.0
 11
528.9354670418906
 21
290.2648939902462
 31
0.0
  0
LINE
  5
1247
330
18
100
AcDbEntity
  8
MSL-90-S16-S-0
 48
2.0
100
AcDbLine
 10
538.9354670418905
 20
291.7648939902461
 30
0.0
 11
538.4354670418905
 21
292.2648939902462
 31
0.0
  0
LINE
  5
1248
330
18
100
AcDbEntity
  8
MSL-90-S16-S-0
 48
2.0
100
AcDbLine
 10
538.9354670418905
 20
290.2648939902462
 30
0.0
 11
538.9354670418905
 21
291.7648939902461
 31
0.0
  0
LINE
  5
1249
330
18
100
AcDbEntity
  8
MSL-90-S16-S-7A
 48
2.0
100
AcDbLine
 10
533.9354670418906
 20
295.7901161219999
 30
0.0
 11
533.9354670418906
 21
283.5635133523344
 31
0.0
  0
LINE
  5
1798
330
18
100
AcDbEntity
  8
MSL-90-S16-S-0
370
     0
100
AcDbLine
 10
121.0553959983368
 20
205.9648939902214
 30
0.0
 11
91.05539599833686
 21
205.9648939902214
 31
0.0
  0
LINE
  5
1799
330
18
100
AcDbEntity
  8
MSL-90-S16-S-0
370
     0
100
AcDbLine
 10
91.05539599833685
 20
286.9648939902214
 30
0.0
 11
91.05539599833686
 21
205.9648939902213
 31
0.0
  0
LINE
  5
179B
330
18
100
AcDbEntity
  8
MSL-90-S16-S-0
370
     0
100
AcDbLine
 10
91.05539599833685
 20
289.9648939902213
 30
0.0
 11
121.0553959983368
 21
289.9648939902213
 31
0.0
  0
LINE
  5
179C
330
18
100
AcDbEntity
  8
MSL-90-S16-S-0
370
     0
100
AcDbLine
 10
91.05539599833685
 20
286.9648939902214
 30
0.0
 11
91.05539599833685
 21
289.9648939902213
 31
0.0
  0
LINE
  5
179D
330
18
100
AcDbEntity
  8
MSL-90-S16-S-0
370
     0
100
AcDbLine
 10
121.0553959983368
 20
286.9648939902214
 30
0.0
 11
91.05539599833686
 21
286.9648939902214
 31
0.0
  0
LINE
  5
179E
330
18
100
AcDbEntity
  8
MSL-90-S16-S-0
370
     0
100
AcDbLine
 10
91.05539599833683
 20
247.9648939902214
 30
0.0
 11
79.05539599833682
 21
247.9648939902214
 31
0.0
  0
LINE
  5
179F
330
18
100
AcDbEntity
  8
MSL-90-S16-S-0
370
     0
100
AcDbLine
 10
79.05539599833684
 20
238.9648939902214
 30
0.0
 11
91.05539599833685
 21
238.9648939902214
 31
0.0
  0
LINE
  5
17A0
330
18
100
AcDbEntity
  8
MSL-90-S16-S-0
370
     0
100
AcDbLine
 10
78.55539599833683
 20
247.4648939902214
 30
0.0
 11
78.55539599833683
 21
239.4648939902214
 31
0.0
  0
LINE
  5
17A1
330
18
100
AcDbEntity
  8
MSL-90-S16-S-0
370
     0
100
AcDbLine
 10
79.05539599833684
 20
238.9648939902215
 30
0.0
 11
79.05539599833684
 21
247.9648939902215
 31
0.0
  0
LINE
  5
17A2
330
18
100
AcDbEntity
  8
MSL-90-S16-S-0
370
     0
100
AcDbLine
 10
79.05539599833684
 20
247.9648939902214
 30
0.0
 11
78.55539599833683
 21
247.4648939902214
 31
0.0
  0
LINE
  5
17A3
330
18
100
AcDbEntity
  8
MSL-90-S16-S-0
370
     0
100
AcDbLine
 10
78.55539599833683
 20
239.4648939902214
 30
0.0
 11
79.05539599833684
 21
238.9648939902214
 31
0.0
  0
LINE
  5
17C7
330
18
100
AcDbEntity
  8
MSL-90-S16-S-0
370
     0
100
AcDbLine
 10
464.6854670418906
 20
205.2648939902338
 30
0.0
 11
461.6854670418907
 21
205.2648939902338
 31
0.0
  0
LINE
  5
17C8
330
18
100
AcDbEntity
  8
MSL-90-S16-S-0
370
     0
100
AcDbLine
 10
543.1854670418906
 20
205.2648939902338
 30
0.0
 11
541.6854670418906
 21
205.2648939902338
 31
0.0
  0
ARC
  5
17C9
330
18
100
AcDbEntity
  8
MSL-90-S16-S-0
370
     0
100
AcDbCircle
 10
541.6854670418906
 20
205.4648939902338
 30
0.0
 40
0.2
100
AcDbArc
 50
180.0
 51
270.0
  0
LINE
  5
17CA
330
18
100
AcDbEntity
  8
MSL-90-S16-S-0
370
     0
100
AcDbLine
 10
533.1854670418906
 20
205.2648939902338
 30
0.0
 11
531.6854670267475
 21
205.2648939902338
 31
0.0
  0
LINE
  5
17CB
330
18
100
AcDbEntity
  8
MSL-90-S16-S-0
370
     0
100
AcDbLine
 10
541.4854670418906
 20
205.4648939902338
 30
0.0
 11
541.4854670418906
 21
205.7648939902338
 31
0.0
  0
LINE
  5
17CC
330
18
100
AcDbEntity
  8
MSL-90-S16-S-0
370
     0
100
AcDbLine
 10
533.3854670418907
 20
205.7648939902338
 30
0.0
 11
533.3854670418907
 21
205.4648939902338
 31
0.0
  0
LINE
  5
17CD
330
18
100
AcDbEntity
  8
MSL-90-S16-S-0
370
     0
100
AcDbLine
 10
466.1854670418906
 20
205.2648939902338
 30
0.0
 11
464.6854670418906
 21
205.2648939902338
 31
0.0
  0
LINE
  5
17CE
330
18
100
AcDbEntity
  8
MSL-90-S16-S-0
370
     0
100
AcDbLine
 10
476.1854670570337
 20
205.2648939902338
 30
0.0
 11
474.6854670418906
 21
205.2648939902338
 31
0.0
  0
ARC
  5
17CF
330
18
100
AcDbEntity
  8
MSL-90-S16-S-0
370
     0
100
AcDbCircle
 10
474.6854670418906
 20
205.4648939902338
 30
0.0
 40
0.2
100
AcDbArc
 50
180.0
 51
270.0
  0
ARC
  5
17D0
330
18
100
AcDbEntity
  8
MSL-90-S16-S-0
370
     0
100
AcDbCircle
 10
533.1854670418906
 20
205.4648939902338
 30
0.0
 40
0.2
100
AcDbArc
 50
270.0
 51
0.0
  0
LINE
  5
17D1
330
18
100
AcDbEntity
  8
MSL-90-S16-S-0
370
     0
100
AcDbLine
 10
474.4854670418906
 20
205.4648939902338
 30
0.0
 11
474.4854670418906
 21
205.7648939902337
 31
0.0
  0
LINE
  5
17D2
330
18
100
AcDbEntity
  8
MSL-90-S16-S-0
370
     0
100
AcDbLine
 10
466.3854670418906
 20
205.7648939902337
 30
0.0
 11
466.3854670418906
 21
205.4648939902338
 31
0.0
  0
ARC
  5
17D3
330
18
100
AcDbEntity
  8
MSL-90-S16-S-0
370
     0
100
AcDbCircle
 10
466.1854670418906
 20
205.4648939902338
 30
0.0
 40
0.2
100
AcDbArc
 50
270.0
 51
0.0
  0
LINE
  5
17D4
330
18
100
AcDbEntity
  8
MSL-90-S16-S-0
370
     0
100
AcDbLine
 10
458.9354670418906
 20
205.7648939902338
 30
0.0
 11
458.9354670418906
 21
205.4648939902338
 31
0.0
  0
ARC
  5
17D5
330
18
100
AcDbEntity
  8
MSL-90-S16-S-0
370
     0
100
AcDbCircle
 10
459.1354670418906
 20
205.4648939902338
 30
0.0
 40
0.2
100
AcDbArc
 50
180.0
 51
270.0
  0
LINE
  5
17D6
330
18
100
AcDbEntity
  8
MSL-90-S16-S-0
370
     0
100
AcDbLine
 10
459.1354670418906
 20
205.2648939902338
 30
0.0
 11
461.6854670418907
 21
205.2648939902338
 31
0.0
  0
LINE
  5
17D7
330
18
100
AcDbEntity
  8
MSL-90-S16-S-0
370
     0
100
AcDbLine
 10
461.6854670418907
 20
205.2648939902338
 30
0.0
 11
461.6854670418907
 21
205.7648939902337
 31
0.0
  0
LINE
  5
17D8
330
18
100
AcDbEntity
  8
MSL-90-S16-S-0
370
     0
100
AcDbLine
 10
479.1854670435302
 20
205.7648939902338
 30
0.0
 11
479.1854670418906
 21
205.2648939902339
 31
0.0
  0
LINE
  5
17D9
330
18
100
AcDbEntity
  8
MSL-90-S16-S-0
370
     0
100
AcDbLine
 10
479.1854670418906
 20
205.2648939902338
 30
0.0
 11
488.7354670418906
 21
205.2648939902338
 31
0.0
  0
ARC
  5
17DA
330
18
100
AcDbEntity
  8
MSL-90-S16-S-0
370
     0
100
AcDbCircle
 10
488.7354670418906
 20
205.4648939902338
 30
0.0
 40
0.2
100
AcDbArc
 50
270.0
 51
0.0
  0
LINE
  5
17DB
330
18
100
AcDbEntity
  8
MSL-90-S16-S-0
370
     0
100
AcDbLine
 10
488.9354670418907
 20
205.4648939902338
 30
0.0
 11
488.9354670418907
 21
205.5648939902338
 31
0.0
  0
ARC
  5
17DC
330
18
100
AcDbEntity
  8
MSL-90-S16-S-0
370
     0
100
AcDbCircle
 10
489.1354670418906
 20
205.5648939902338
 30
0.0
 40
0.2
100
AcDbArc
 50
90.0
 51
180.0
  0
ARC
  5
17DD
330
18
100
AcDbEntity
  8
MSL-90-S16-S-0
370
     0
100
AcDbCircle
 10
518.7354670418906
 20
205.5648939902338
 30
0.0
 40
0.2
100
AcDbArc
 50
0.0
 51
90.0
  0
LINE
  5
17DE
330
18
100
AcDbEntity
  8
MSL-90-S16-S-0
370
     0
100
AcDbLine
 10
518.9354670418906
 20
205.5648939902338
 30
0.0
 11
518.9354670418906
 21
205.4648939902338
 31
0.0
  0
ARC
  5
17DF
330
18
100
AcDbEntity
  8
MSL-90-S16-S-0
370
     0
100
AcDbCircle
 10
519.1354670418907
 20
205.4648939902338
 30
0.0
 40
0.2
100
AcDbArc
 50
180.0
 51
270.0
  0
LINE
  5
17E0
330
18
100
AcDbEntity
  8
MSL-90-S16-S-0
370
     0
100
AcDbLine
 10
519.1354670418907
 20
205.2648939902338
 30
0.0
 11
528.6854670418906
 21
205.2648939902338
 31
0.0
  0
LINE
  5
17E1
330
18
100
AcDbEntity
  8
MSL-90-S16-S-0
370
     0
100
AcDbLine
 10
528.6854670418906
 20
205.2648939902338
 30
0.0
 11
528.6854670402511
 21
205.7648939902338
 31
0.0
  0
LINE
  5
17E2
330
18
100
AcDbEntity
  8
MSL-90-S16-S-0
370
     0
100
AcDbLine
 10
546.1854670418906
 20
205.7648939902338
 30
0.0
 11
546.1854670418906
 21
205.2648939902338
 31
0.0
  0
LINE
  5
17E3
330
18
100
AcDbEntity
  8
MSL-90-S16-S-0
370
     0
100
AcDbLine
 10
546.1854670418906
 20
205.2648939902338
 30
0.0
 11
548.7354670418906
 21
205.2648939902338
 31
0.0
  0
LINE
  5
17E4
330
18
100
AcDbEntity
  8
MSL-90-S16-S-0
370
     0
100
AcDbLine
 10
548.9354670418906
 20
205.4648939902338
 30
0.0
 11
548.9354670418906
 21
205.7648939902338
 31
0.0
  0
ARC
  5
17E5
330
18
100
AcDbEntity
  8
MSL-90-S16-S-0
370
     0
100
AcDbCircle
 10
548.7354670418908
 20
205.4648939902338
 30
0.0
 40
0.2
100
AcDbArc
 50
270.0
 51
0.0
  0
LINE
  5
17E6
330
18
100
AcDbEntity
  8
MSL-90-S16-S-0
370
     0
100
AcDbLine
 10
479.1854670570337
 20
205.2648939902338
 30
0.0
 11
476.1854670570337
 21
205.2648939902338
 31
0.0
  0
LINE
  5
17E7
330
18
100
AcDbEntity
  8
MSL-90-S16-S-0
370
     0
100
AcDbLine
 10
531.6854670267475
 20
205.2648939902338
 30
0.0
 11
528.6854670267476
 21
205.2648939902338
 31
0.0
  0
LINE
  5
17E8
330
18
100
AcDbEntity
  8
MSL-90-S16-S-0
370
     0
100
AcDbLine
 10
546.1854670418906
 20
205.2648939902338
 30
0.0
 11
543.1854670418906
 21
205.2648939902338
 31
0.0
  0
LINE
  5
17E9
330
18
100
AcDbEntity
  8
MSL-90-S16-S-0
370
     0
100
AcDbLine
 10
553.9354670418909
 20
289.7648939902337
 30
0.0
 11
553.4354670418909
 21
290.2648939902336
 31
0.0
  0
LINE
  5
17EA
330
18
100
AcDbEntity
  8
MSL-90-S16-S-0
370
     0
100
AcDbLine
 10
458.9354670418906
 20
265.2648939902339
 30
0.0
 11
453.9354670418909
 21
265.2648939902339
 31
0.0
  0
LINE
  5
17EB
330
18
100
AcDbEntity
  8
MSL-90-S16-S-0
370
     0
100
AcDbLine
 10
513.9354670418908
 20
290.2648939902338
 30
0.0
 11
513.9354670418908
 21
289.7648939902337
 31
0.0
  0
LINE
  5
17EC
330
18
100
AcDbEntity
  8
MSL-90-S16-S-0
370
     0
100
AcDbLine
 10
493.9354670418908
 20
289.7648939902337
 30
0.0
 11
493.9354670418908
 21
290.2648939902338
 31
0.0
  0
LINE
  5
17ED
330
18
100
AcDbEntity
  8
MSL-90-S16-S-0
370
     0
100
AcDbLine
 10
553.9354670418909
 20
265.2648939902336
 30
0.0
 11
548.9354670418906
 21
265.2648939902336
 31
0.0
  0
LINE
  5
17EE
330
18
100
AcDbEntity
  8
MSL-90-S16-S-0
370
     0
100
AcDbLine
 10
493.9354670418908
 20
290.2648939902338
 30
0.0
 11
454.4354670418909
 21
290.2648939902339
 31
0.0
  0
LINE
  5
17EF
330
18
100
AcDbEntity
  8
MSL-90-S16-S-0
370
     0
100
AcDbLine
 10
453.9354670418909
 20
289.7648939902337
 30
0.0
 11
453.9354670418909
 21
265.2648939902338
 31
0.0
  0
LINE
  5
17F0
330
18
100
AcDbEntity
  8
MSL-90-S16-S-0
370
     0
100
AcDbLine
 10
553.4354670418909
 20
290.2648939902336
 30
0.0
 11
513.9354670418908
 21
290.2648939902338
 31
0.0
  0
LINE
  5
17F1
330
18
100
AcDbEntity
  8
MSL-90-S16-S-0
370
     0
100
AcDbLine
 10
553.9354670418909
 20
289.7648939902337
 30
0.0
 11
553.9354670418909
 21
265.2648939902336
 31
0.0
  0
LINE
  5
17F2
330
18
100
AcDbEntity
  8
MSL-90-S16-S-0
370
     0
100
AcDbLine
 10
454.4354670418909
 20
290.2648939902339
 30
0.0
 11
453.9354670418909
 21
289.7648939902339
 31
0.0
  0
LINE
  5
17F3
330
18
100
AcDbEntity
  8
MSL-90-S16-S-0
370
     0
100
AcDbLine
 10
456.0353743418946
 20
255.2646731902339
 30
0.0
 11
456.0354957418869
 21
255.2646731902339
 31
0.0
  0
LINE
  5
17F4
330
18
100
AcDbEntity
  8
MSL-90-S16-S-0
370
     0
100
AcDbLine
 10
456.0353743418946
 20
255.2646731902339
 30
0.0
 11
456.0353743418946
 21
255.2650260893431
 31
0.0
  0
LINE
  5
17F5
330
18
100
AcDbEntity
  8
MSL-90-S16-S-0
370
     0
100
AcDbLine
 10
456.0354957418869
 20
260.5146693902339
 30
0.0
 11
457.9293365748758
 21
260.5146693902339
 31
0.0
  0
LINE
  5
17F6
330
18
100
AcDbEntity
  8
MSL-90-S16-S-0
370
     0
100
AcDbLine
 10
456.0354957418869
 20
255.2646731902338
 30
0.0
 11
456.0354957418869
 21
260.5146693902339
 31
0.0
  0
LINE
  5
17F7
330
18
100
AcDbEntity
  8
MSL-90-S16-S-0
370
     0
100
AcDbLine
 10
456.0354957418869
 20
255.2646731902338
 30
0.0
 11
458.9354670418906
 21
255.2646731902338
 31
0.0
  0
ARC
  5
17F8
330
18
100
AcDbEntity
  8
MSL-90-S16-S-0
370
     0
100
AcDbCircle
 10
457.9353987418869
 20
262.2646578902338
 30
0.0
 40
1.749999
100
AcDbArc
 50
269.8015214413671
 51
304.8526522977354
  0
ARC
  5
17F9
330
18
100
AcDbEntity
  8
MSL-90-S16-S-0
370
     0
100
AcDbCircle
 10
457.9355207418869
 20
262.2646731902339
 30
0.0
 40
1.599999399999999
100
AcDbArc
 50
51.3202587011464
 51
308.6797412988536
  0
LINE
  5
17FA
330
18
100
AcDbEntity
  8
MSL-90-S16-S-0
370
     0
100
AcDbLine
 10
455.4355147418869
 20
255.8648826902338
 30
0.0
 11
455.6354717418868
 21
255.6649264902338
 31
0.0
  0
LINE
  5
17FB
330
18
100
AcDbEntity
  8
MSL-90-S16-S-0
370
     0
100
AcDbLine
 10
455.935530742427
 20
265.2648939902338
 30
0.0
 11
455.4355207418868
 21
264.7648939902338
 31
0.0
  0
LINE
  5
17FC
330
18
100
AcDbEntity
  8
MSL-90-S16-S-0
370
     0
100
AcDbLine
 10
455.4355207418868
 20
264.7648939902338
 30
0.0
 11
455.4355147418869
 21
255.8648826902338
 31
0.0
  0
LINE
  5
17FD
330
18
100
AcDbEntity
  8
MSL-90-S16-S-0
370
     0
100
AcDbLine
 10
456.1355177418867
 20
264.5646689902338
 30
0.0
 11
458.9354670418906
 21
264.5646689902338
 31
0.0
  0
LINE
  5
17FE
330
18
100
AcDbEntity
  8
MSL-90-S16-S-0
370
     0
100
AcDbLine
 10
455.635478741887
 20
264.0646089902339
 30
0.0
 11
456.135517741887
 21
264.5646689902338
 31
0.0
  0
LINE
  5
17FF
330
18
100
AcDbEntity
  8
MSL-90-S16-S-0
370
     0
100
AcDbLine
 10
456.0354957418869
 20
255.2649046900183
 30
0.0
 11
455.6354717418868
 21
255.6649264902338
 31
0.0
  0
LINE
  5
1800
330
18
100
AcDbEntity
  8
MSL-90-S16-S-0
370
     0
100
AcDbLine
 10
455.6354717418868
 20
255.6649264902338
 30
0.0
 11
455.635478741887
 21
264.0646089902339
 31
0.0
  0
LINE
  5
1801
330
18
100
AcDbEntity
  8
MSL-90-S16-S-0
370
     0
100
AcDbLine
 10
551.8355597418869
 20
260.5146693902337
 30
0.0
 11
551.8355597418869
 21
255.2646731902338
 31
0.0
  0
LINE
  5
1802
330
18
100
AcDbEntity
  8
MSL-90-S16-S-0
370
     0
100
AcDbLine
 10
549.9295955748757
 20
260.5146693902337
 30
0.0
 11
551.8355597418869
 21
260.5146693902337
 31
0.0
  0
ARC
  5
1803
330
18
100
AcDbEntity
  8
MSL-90-S16-S-0
370
     0
100
AcDbCircle
 10
549.9356577418871
 20
262.2646578902337
 30
0.0
 40
1.749999
100
AcDbArc
 50
235.1424641629701
 51
269.8015214413708
  0
LINE
  5
1804
330
18
100
AcDbEntity
  8
MSL-90-S16-S-0
370
     0
100
AcDbLine
 10
548.9354670418906
 20
255.2646731902338
 30
0.0
 11
551.8355597418872
 21
255.2646731902338
 31
0.0
  0
ARC
  5
1805
330
18
100
AcDbEntity
  8
MSL-90-S16-S-0
370
     0
100
AcDbCircle
 10
549.935535741887
 20
262.2646731902337
 30
0.0
 40
1.599999399999999
100
AcDbArc
 50
0.0
 51
128.6853562254173
  0
ARC
  5
1806
330
18
100
AcDbEntity
  8
MSL-90-S16-S-0
370
     0
100
AcDbCircle
 10
549.935535741887
 20
262.2646731902337
 30
0.0
 40
1.599999399999999
100
AcDbArc
 50
231.314643774584
 51
0.0
  0
LINE
  5
1807
330
18
100
AcDbEntity
  8
MSL-90-S16-S-0
370
     0
100
AcDbLine
 10
552.4351697418869
 20
255.8649250903145
 30
0.0
 11
552.4351697418869
 21
264.7648119902337
 31
0.0
  0
LINE
  5
1808
330
18
100
AcDbEntity
  8
MSL-90-S16-S-0
370
     0
100
AcDbLine
 10
552.4351697418869
 20
264.7648119902338
 30
0.0
 11
551.9350877418871
 21
265.2648939902337
 31
0.0
  0
LINE
  5
1809
330
18
100
AcDbEntity
  8
MSL-90-S16-S-0
370
     0
100
AcDbLine
 10
552.2355844750086
 20
255.6653396571118
 30
0.0
 11
552.4351697418869
 21
255.8649250903145
 31
0.0
  0
LINE
  5
180A
330
18
100
AcDbEntity
  8
MSL-90-S16-S-0
370
     0
100
AcDbLine
 10
548.9354670418906
 20
264.5646689902337
 30
0.0
 11
551.7355437418869
 21
264.5646689902337
 31
0.0
  0
LINE
  5
180B
330
18
100
AcDbEntity
  8
MSL-90-S16-S-0
370
     0
100
AcDbLine
 10
552.2355867418869
 20
264.0646159902337
 30
0.0
 11
552.2355847418869
 21
255.6653393902337
 31
0.0
  0
LINE
  5
180C
330
18
100
AcDbEntity
  8
MSL-90-S16-S-0
370
     0
100
AcDbLine
 10
551.7355437418869
 20
264.5646689902337
 30
0.0
 11
552.2355867418869
 21
264.0646159902337
 31
0.0
  0
LINE
  5
180D
330
18
100
AcDbEntity
  8
MSL-90-S16-S-0
370
     0
100
AcDbLine
 10
552.2355847418869
 20
255.6653393902337
 30
0.0
 11
551.8355597418869
 21
255.2653145897751
 31
0.0
  0
LINE
  5
180E
330
18
100
AcDbEntity
  8
MSL-90-S16-S-0
370
     0
100
AcDbLine
 10
553.6854670418908
 20
289.2648939902338
 30
0.0
 11
553.1854670418908
 21
289.7648939902337
 31
0.0
  0
LINE
  5
180F
330
18
100
AcDbEntity
  8
MSL-90-S16-S-0
370
     0
100
AcDbLine
 10
454.6854670418908
 20
289.7648939902337
 30
0.0
 11
454.1854670418908
 21
289.2648939902338
 31
0.0
  0
LINE
  5
1810
330
18
100
AcDbEntity
  8
MSL-90-S16-S-0
370
     0
100
AcDbLine
 10
454.1854670418908
 20
274.2648939902339
 30
0.0
 11
454.6854670418908
 21
273.7648939902339
 31
0.0
  0
LINE
  5
1811
330
18
100
AcDbEntity
  8
MSL-90-S16-S-0
370
     0
100
AcDbLine
 10
553.1854670418908
 20
273.7648939902337
 30
0.0
 11
553.6854670418908
 21
274.2648939902337
 31
0.0
  0
LINE
  5
1812
330
18
100
AcDbEntity
  8
MSL-90-S16-S-0
370
     0
100
AcDbLine
 10
454.1854670418908
 20
274.2648939902339
 30
0.0
 11
454.1854670418908
 21
289.2648939902339
 31
0.0
  0
LINE
  5
1813
330
18
100
AcDbEntity
  8
MSL-90-S16-S-0
370
     0
100
AcDbLine
 10
548.9354670418906
 20
273.7648939902338
 30
0.0
 11
553.1854670418908
 21
273.7648939902338
 31
0.0
  0
LINE
  5
1814
330
18
100
AcDbEntity
  8
MSL-90-S16-S-0
370
     0
100
AcDbLine
 10
454.6854670418908
 20
273.7648939902338
 30
0.0
 11
458.9354670418906
 21
273.7648939902338
 31
0.0
  0
LINE
  5
1815
330
18
100
AcDbEntity
  8
MSL-90-S16-S-0
370
     0
100
AcDbLine
 10
553.6854670418908
 20
289.2648939902338
 30
0.0
 11
553.6854670418908
 21
274.2648939902338
 31
0.0
  0
LINE
  5
1816
330
18
100
AcDbEntity
  8
MSL-90-S16-S-0
370
     0
100
AcDbLine
 10
454.6854670418908
 20
289.7648939902337
 30
0.0
 11
461.9354670418906
 21
289.7648939902337
 31
0.0
  0
LINE
  5
1817
330
18
100
AcDbEntity
  8
MSL-90-S16-S-0
370
     0
100
AcDbLine
 10
545.9354670418906
 20
289.7648939902337
 30
0.0
 11
553.1854670418908
 21
289.7648939902337
 31
0.0
  0
CIRCLE
  5
1818
330
18
100
AcDbEntity
  8
MSL-90-S16-S-0
370
     0
100
AcDbCircle
 10
482.7222636062942
 20
222.0516905546373
 30
0.0
 40
2.1
  0
CIRCLE
  5
1819
330
18
100
AcDbEntity
  8
MSL-90-S16-S-0
370
     0
100
AcDbCircle
 10
525.148670477487
 20
222.0516905546373
 30
0.0
 40
2.1
  0
CIRCLE
  5
181A
330
18
100
AcDbEntity
  8
MSL-90-S16-S-0
370
     0
100
AcDbCircle
 10
525.148670477487
 20
264.4780974258302
 30
0.0
 40
2.1
  0
CIRCLE
  5
181B
330
18
100
AcDbEntity
  8
MSL-90-S16-S-0
370
     0
100
AcDbCircle
 10
482.7222636062942
 20
264.4780974258302
 30
0.0
 40
2.1
  0
CIRCLE
  5
181C
330
18
100
AcDbEntity
  8
MSL-90-S16-S-0
370
     0
100
AcDbCircle
 10
503.9354670418906
 20
243.2648939902338
 30
0.0
 40
15.188
  0
LINE
  5
181D
330
18
100
AcDbEntity
  8
MSL-90-S16-S-0
370
     0
100
AcDbLine
 10
548.9354670418906
 20
205.7648939902338
 30
0.0
 11
458.9354670418906
 21
205.7648939902337
 31
0.0
  0
LINE
  5
181E
330
18
100
AcDbEntity
  8
MSL-90-S16-S-0
370
     0
100
AcDbLine
 10
461.9354670418906
 20
289.7648939902337
 30
0.0
 11
545.9354670418906
 21
289.7648939902337
 31
0.0
  0
LINE
  5
181F
330
18
100
AcDbEntity
  8
MSL-90-S16-S-0
370
     0
100
AcDbLine
 10
461.9354670418906
 20
289.7648939902337
 30
0.0
 11
458.9354670418906
 21
286.7648939902336
 31
0.0
  0
LINE
  5
1820
330
18
100
AcDbEntity
  8
MSL-90-S16-S-0
370
     0
100
AcDbLine
 10
458.9354670418906
 20
205.7648939902338
 30
0.0
 11
458.9354670418906
 21
286.7648939902338
 31
0.0
  0
LINE
  5
1821
330
18
100
AcDbEntity
  8
MSL-90-S16-S-0
370
     0
100
AcDbLine
 10
548.9354670418906
 20
286.7648939902338
 30
0.0
 11
548.9354670418909
 21
205.7648939902338
 31
0.0
  0
LINE
  5
1824
330
18
100
AcDbEntity
  8
MSL-90-S16-S-0
370
     0
100
AcDbLine
 10
548.9354670418906
 20
286.7648939902338
 30
0.0
 11
545.9354670418906
 21
289.7648939902337
 31
0.0
  0
CIRCLE
  5
1825
330
18
100
AcDbEntity
  8
MSL-90-S16-S-0
370
     0
100
AcDbCircle
 10
484.4854670418905
 20
212.7648939902337
 30
0.0
 40
5.0
  0
CIRCLE
  5
1826
330
18
100
AcDbEntity
  8
MSL-90-S16-S-0
370
     0
100
AcDbCircle
 10
523.3854670418907
 20
212.7648939902339
 30
0.0
 40
5.0
  0
CIRCLE
  5
1827
330
18
100
AcDbEntity
  8
MSL-90-S16-S-0
370
     0
100
AcDbCircle
 10
479.4354670418906
 20
249.2648939902337
 30
0.0
 40
4.0
  0
CIRCLE
  5
1828
330
18
100
AcDbEntity
  8
MSL-90-S16-S-0
370
     0
100
AcDbCircle
 10
528.4354670418906
 20
249.2648939902338
 30
0.0
 40
4.0
  0
CIRCLE
  5
1829
330
18
100
AcDbEntity
  8
MSL-90-S16-S-0
370
     0
100
AcDbCircle
 10
503.9354670418906
 20
243.2648939902338
 30
0.0
 40
21.0
  0
ARC
  5
182A
330
18
100
AcDbEntity
  8
MSL-90-S16-S-5
370
     0
100
AcDbCircle
 10
482.7222636062942
 20
222.0516905546373
 30
0.0
 40
2.5
100
AcDbArc
 50
255.0000000000027
 51
195.0000000000001
  0
ARC
  5
182B
330
18
100
AcDbEntity
  8
MSL-90-S16-S-5
370
     0
100
AcDbCircle
 10
525.148670477487
 20
222.0516905546373
 30
0.0
 40
2.5
100
AcDbArc
 50
255.0000000000002
 51
194.9999999999994
  0
ARC
  5
182C
330
18
100
AcDbEntity
  8
MSL-90-S16-S-5
370
     0
100
AcDbCircle
 10
525.148670477487
 20
264.4780974258302
 30
0.0
 40
2.5
100
AcDbArc
 50
254.9999999999977
 51
194.9999999999994
  0
ARC
  5
182D
330
18
100
AcDbEntity
  8
MSL-90-S16-S-5
370
     0
100
AcDbCircle
 10
482.7222636062942
 20
264.4780974258302
 30
0.0
 40
2.5
100
AcDbArc
 50
255.0000000000002
 51
195.0000000000001
  0
CIRCLE
  5
182F
330
18
100
AcDbEntity
  8
MSL-90-S16-S-0
370
     0
100
AcDbCircle
 10
503.9354670418906
 20
243.2648939902338
 30
0.0
 40
5.0
  0
CIRCLE
  5
1830
330
18
100
AcDbEntity
  8
MSL-90-S16-S-0
370
     0
100
AcDbCircle
 10
503.9354670418906
 20
243.2648939902338
 30
0.0
 40
4.7
  0
CIRCLE
  5
1831
330
18
100
AcDbEntity
  8
MSL-90-S16-S-0
370
     0
100
AcDbCircle
 10
503.9354670418906
 20
243.2648939902338
 30
0.0
 40
3.999999999999987
  0
CIRCLE
  5
1832
330
18
100
AcDbEntity
  8
MSL-90-S16-S-0
370
     0
100
AcDbCircle
 10
503.9354670418906
 20
243.2648939902338
 30
0.0
 40
4.499999999999988
  0
ARC
  5
1833
330
18
100
AcDbEntity
  8
MSL-90-S16-S-5
370
     0
100
AcDbCircle
 10
503.9354670418906
 20
243.2648939902338
 30
0.0
 40
4.594
100
AcDbArc
 50
254.9999999999998
 51
194.9999999999999
  0
LINE
  5
1834
330
18
100
AcDbEntity
  8
MSL-90-S16-S-0
370
     0
100
AcDbLine
 10
484.4854670418905
 20
210.4554929134752
 30
0.0
 11
482.4854670418906
 21
211.6101934518545
 31
0.0
  0
LINE
  5
1835
330
18
100
AcDbEntity
  8
MSL-90-S16-S-0
370
     0
100
AcDbLine
 10
486.4854670418906
 20
211.6101934518545
 30
0.0
 11
484.4854670418905
 21
210.4554929134752
 31
0.0
  0
LINE
  5
1836
330
18
100
AcDbEntity
  8
MSL-90-S16-S-0
370
     0
100
AcDbLine
 10
482.4854670418906
 20
213.919594528613
 30
0.0
 11
484.4854670418905
 21
215.0742950669922
 31
0.0
  0
CIRCLE
  5
1837
330
18
100
AcDbEntity
  8
MSL-90-S16-S-0
370
     0
100
AcDbCircle
 10
484.4854670418905
 20
212.7648939902337
 30
0.0
 40
4.25
  0
LINE
  5
1838
330
18
100
AcDbEntity
  8
MSL-90-S16-S-0
370
     0
100
AcDbLine
 10
484.4854670418905
 20
215.0742950669922
 30
0.0
 11
486.4854670418906
 21
213.919594528613
 31
0.0
  0
LINE
  5
1839
330
18
100
AcDbEntity
  8
MSL-90-S16-S-0
370
     0
100
AcDbLine
 10
486.4854670418906
 20
213.919594528613
 30
0.0
 11
486.4854670418906
 21
211.6101934518545
 31
0.0
  0
LINE
  5
183A
330
18
100
AcDbEntity
  8
MSL-90-S16-S-0
370
     0
100
AcDbLine
 10
482.4854670418906
 20
211.6101934518545
 30
0.0
 11
482.4854670418906
 21
213.919594528613
 31
0.0
  0
CIRCLE
  5
183B
330
18
100
AcDbEntity
  8
MSL-90-S16-S-0
370
     0
100
AcDbCircle
 10
523.3854670418907
 20
212.7648939902339
 30
0.0
 40
4.25
  0
LINE
  5
183C
330
18
100
AcDbEntity
  8
MSL-90-S16-S-0
370
     0
100
AcDbLine
 10
521.3854670418907
 20
213.9195945286131
 30
0.0
 11
523.3854670418907
 21
215.0742950669923
 31
0.0
  0
LINE
  5
183D
330
18
100
AcDbEntity
  8
MSL-90-S16-S-0
370
     0
100
AcDbLine
 10
523.3854670418907
 20
215.0742950669923
 30
0.0
 11
525.3854670418907
 21
213.9195945286131
 31
0.0
  0
LINE
  5
183E
330
18
100
AcDbEntity
  8
MSL-90-S16-S-0
370
     0
100
AcDbLine
 10
525.3854670418907
 20
213.9195945286131
 30
0.0
 11
525.3854670418907
 21
211.6101934518546
 31
0.0
  0
LINE
  5
183F
330
18
100
AcDbEntity
  8
MSL-90-S16-S-0
370
     0
100
AcDbLine
 10
521.3854670418907
 20
211.6101934518546
 30
0.0
 11
521.3854670418907
 21
213.9195945286131
 31
0.0
  0
LINE
  5
1840
330
18
100
AcDbEntity
  8
MSL-90-S16-S-0
370
     0
100
AcDbLine
 10
525.3854670418907
 20
211.6101934518546
 30
0.0
 11
523.3854670418907
 21
210.4554929134753
 31
0.0
  0
LINE
  5
1841
330
18
100
AcDbEntity
  8
MSL-90-S16-S-0
370
     0
100
AcDbLine
 10
523.3854670418907
 20
210.4554929134753
 30
0.0
 11
521.3854670418907
 21
211.6101934518546
 31
0.0
  0
LINE
  5
1842
330
18
100
AcDbEntity
  8
MSL-90-S16-S-0
370
     0
100
AcDbLine
 10
480.9354670418906
 20
248.3988685864493
 30
0.0
 11
479.4354670418906
 21
247.5328431826649
 31
0.0
  0
LINE
  5
1843
330
18
100
AcDbEntity
  8
MSL-90-S16-S-0
370
     0
100
AcDbLine
 10
479.4354670418906
 20
247.5328431826649
 30
0.0
 11
477.9354670418906
 21
248.3988685864493
 31
0.0
  0
CIRCLE
  5
1844
330
18
100
AcDbEntity
  8
MSL-90-S16-S-0
370
     0
100
AcDbCircle
 10
479.4354670418906
 20
249.2648939902338
 30
0.0
 40
3.499999999999999
  0
LINE
  5
1846
330
18
100
AcDbEntity
  8
MSL-90-S16-S-0
370
     0
100
AcDbLine
 10
477.9354670418906
 20
250.1309193940182
 30
0.0
 11
479.4354670418906
 21
250.9969447978026
 31
0.0
  0
LINE
  5
1847
330
18
100
AcDbEntity
  8
MSL-90-S16-S-0
370
     0
100
AcDbLine
 10
479.4354670418906
 20
250.9969447978026
 30
0.0
 11
480.9354670418906
 21
250.1309193940182
 31
0.0
  0
LINE
  5
1848
330
18
100
AcDbEntity
  8
MSL-90-S16-S-0
370
     0
100
AcDbLine
 10
480.9354670418906
 20
250.1309193940182
 30
0.0
 11
480.9354670418906
 21
248.3988685864493
 31
0.0
  0
LINE
  5
1849
330
18
100
AcDbEntity
  8
MSL-90-S16-S-0
370
     0
100
AcDbLine
 10
477.9354670418906
 20
248.3988685864493
 30
0.0
 11
477.9354670418906
 21
250.1309193940183
 31
0.0
  0
CIRCLE
  5
184B
330
18
100
AcDbEntity
  8
MSL-90-S16-S-0
370
     0
100
AcDbCircle
 10
528.4354670418906
 20
249.2648939902338
 30
0.0
 40
3.499999999999999
  0
LINE
  5
184C
330
18
100
AcDbEntity
  8
MSL-90-S16-S-0
370
     0
100
AcDbLine
 10
526.9354670418906
 20
250.1309193940183
 30
0.0
 11
528.4354670418906
 21
250.9969447978027
 31
0.0
  0
LINE
  5
184D
330
18
100
AcDbEntity
  8
MSL-90-S16-S-0
370
     0
100
AcDbLine
 10
528.4354670418906
 20
250.9969447978027
 30
0.0
 11
529.9354670418906
 21
250.1309193940183
 31
0.0
  0
LINE
  5
184E
330
18
100
AcDbEntity
  8
MSL-90-S16-S-0
370
     0
100
AcDbLine
 10
529.9354670418906
 20
250.1309193940183
 30
0.0
 11
529.9354670418906
 21
248.3988685864494
 31
0.0
  0
LINE
  5
184F
330
18
100
AcDbEntity
  8
MSL-90-S16-S-0
370
     0
100
AcDbLine
 10
526.9354670418906
 20
248.3988685864494
 30
0.0
 11
526.9354670418906
 21
250.1309193940183
 31
0.0
  0
LINE
  5
1850
330
18
100
AcDbEntity
  8
MSL-90-S16-S-0
370
     0
100
AcDbLine
 10
528.4354670418906
 20
247.5328431826649
 30
0.0
 11
526.9354670418906
 21
248.3988685864493
 31
0.0
  0
LINE
  5
1851
330
18
100
AcDbEntity
  8
MSL-90-S16-S-0
370
     0
100
AcDbLine
 10
529.9354670418906
 20
248.3988685864494
 30
0.0
 11
528.4354670418906
 21
247.532843182665
 31
0.0
  0
CIRCLE
  5
1852
330
18
100
AcDbEntity
  8
MSL-90-S16-S-0
370
     0
100
AcDbCircle
 10
503.9354670418906
 20
255.7648939902338
 30
0.0
 40
1.6
  0
CIRCLE
  5
1853
330
18
100
AcDbEntity
  8
MSL-90-S16-S-0
370
     0
100
AcDbCircle
 10
503.9354670418906
 20
230.7648939902338
 30
0.0
 40
1.6
  0
CIRCLE
  5
1854
330
18
100
AcDbEntity
  8
MSL-90-S16-S-0
370
     0
100
AcDbCircle
 10
503.9354670418906
 20
243.2648939902338
 30
0.0
 40
9.5
  0
LINE
  5
1855
330
18
100
AcDbEntity
  8
MSL-90-S16-S-0
370
     0
100
AcDbLine
 10
505.4354670418907
 20
236.2648939902338
 30
0.0
 11
505.4354670418907
 21
234.6951798759823
 31
0.0
  0
LINE
  5
1856
330
18
100
AcDbEntity
  8
MSL-90-S16-S-0
370
     0
100
AcDbLine
 10
502.4354670418906
 20
234.6951798759824
 30
0.0
 11
502.4354670418906
 21
236.2648939902338
 31
0.0
  0
LINE
  5
1857
330
18
100
AcDbEntity
  8
MSL-90-S16-S-0
370
     0
100
AcDbLine
 10
502.4354670418906
 20
236.2648939902338
 30
0.0
 11
505.4354670418907
 21
236.2648939902338
 31
0.0
  0
LINE
  5
1858
330
18
100
AcDbEntity
  8
MSL-90-S16-S-0
370
     0
100
AcDbLine
 10
495.3657529276393
 20
244.7648939902338
 30
0.0
 11
496.9354670418907
 21
244.7648939902338
 31
0.0
  0
LINE
  5
1859
330
18
100
AcDbEntity
  8
MSL-90-S16-S-0
370
     0
100
AcDbLine
 10
496.9354670418907
 20
241.7648939902337
 30
0.0
 11
495.3657529276393
 21
241.7648939902337
 31
0.0
  0
LINE
  5
185A
330
18
100
AcDbEntity
  8
MSL-90-S16-S-0
370
     0
100
AcDbLine
 10
496.9354670418907
 20
244.7648939902338
 30
0.0
 11
496.9354670418907
 21
241.7648939902337
 31
0.0
  0
ARC
  5
185B
330
18
100
AcDbEntity
  8
MSL-90-S16-S-0
370
     0
100
AcDbCircle
 10
503.9354670418906
 20
243.2648939902338
 30
0.0
 40
8.700000000000001
100
AcDbArc
 50
99.92819184228727
 51
170.0718081577136
  0
ARC
  5
185C
330
18
100
AcDbEntity
  8
MSL-90-S16-S-0
370
     0
100
AcDbCircle
 10
503.9354670418906
 20
243.2648939902338
 30
0.0
 40
8.700000000000001
100
AcDbArc
 50
189.9281918422864
 51
260.0718081577136
  0
ARC
  5
185D
330
18
100
AcDbEntity
  8
MSL-90-S16-S-0
370
     0
100
AcDbCircle
 10
503.9354670418906
 20
243.2648939902338
 30
0.0
 40
9.000000000000001
100
AcDbArc
 50
279.5940682268604
 51
350.4059317731398
  0
LINE
  5
185E
330
18
100
AcDbEntity
  8
MSL-90-S16-S-0
370
     0
100
AcDbLine
 10
512.505181156142
 20
241.7648939902338
 30
0.0
 11
512.80958671654
 21
241.7648939902338
 31
0.0
  0
ARC
  5
185F
330
18
100
AcDbEntity
  8
MSL-90-S16-S-0
370
     0
100
AcDbCircle
 10
503.9354670418906
 20
243.2648939902338
 30
0.0
 40
8.700000000000001
100
AcDbArc
 50
279.9281918422865
 51
350.0718081577139
  0
LINE
  5
1860
330
18
100
AcDbEntity
  8
MSL-90-S16-S-0
370
     0
100
AcDbLine
 10
505.4354670418907
 20
251.8346081044852
 30
0.0
 11
505.4354670418907
 21
252.1390136648832
 31
0.0
  0
LINE
  5
1861
330
18
100
AcDbEntity
  8
MSL-90-S16-S-0
370
     0
100
AcDbLine
 10
505.4354670418907
 20
234.3907743155843
 30
0.0
 11
505.4354670418907
 21
234.6951798759823
 31
0.0
  0
LINE
  5
1862
330
18
100
AcDbEntity
  8
MSL-90-S16-S-0
370
     0
100
AcDbLine
 10
512.80958671654
 20
244.7648939902338
 30
0.0
 11
512.505181156142
 21
244.7648939902338
 31
0.0
  0
LINE
  5
1863
330
18
100
AcDbEntity
  8
MSL-90-S16-S-0
370
     0
100
AcDbLine
 10
495.3657529276393
 20
244.7648939902338
 30
0.0
 11
495.0613473672413
 21
244.7648939902338
 31
0.0
  0
ARC
  5
1864
330
18
100
AcDbEntity
  8
MSL-90-S16-S-0
370
     0
100
AcDbCircle
 10
503.9354670418906
 20
243.2648939902338
 30
0.0
 40
9.000000000000001
100
AcDbArc
 50
99.59406822686119
 51
170.4059317731396
  0
LINE
  5
1865
330
18
100
AcDbEntity
  8
MSL-90-S16-S-0
370
     0
100
AcDbLine
 10
502.4354670418906
 20
252.1390136648832
 30
0.0
 11
502.4354670418906
 21
251.8346081044853
 31
0.0
  0
ARC
  5
1866
330
18
100
AcDbEntity
  8
MSL-90-S16-S-0
370
     0
100
AcDbCircle
 10
503.9354670418906
 20
243.2648939902338
 30
0.0
 40
9.000000000000001
100
AcDbArc
 50
9.594068226860882
 51
80.40593177314031
  0
LINE
  5
1867
330
18
100
AcDbEntity
  8
MSL-90-S16-S-0
370
     0
100
AcDbLine
 10
495.0613473672413
 20
241.7648939902337
 30
0.0
 11
495.3657529276393
 21
241.7648939902337
 31
0.0
  0
ARC
  5
1868
330
18
100
AcDbEntity
  8
MSL-90-S16-S-0
370
     0
100
AcDbCircle
 10
503.9354670418906
 20
243.2648939902338
 30
0.0
 40
9.000000000000001
100
AcDbArc
 50
189.5940682268604
 51
260.4059317731395
  0
LINE
  5
1869
330
18
100
AcDbEntity
  8
MSL-90-S16-S-0
370
     0
100
AcDbLine
 10
502.4354670418906
 20
234.6951798759824
 30
0.0
 11
502.4354670418906
 21
234.3907743155844
 31
0.0
  0
LINE
  5
186A
330
18
100
AcDbEntity
  8
MSL-90-S16-S-0
370
     0
100
AcDbLine
 10
505.4354670418907
 20
251.8346081044852
 30
0.0
 11
505.4354670418907
 21
250.2648939902337
 31
0.0
  0
ARC
  5
186B
330
18
100
AcDbEntity
  8
MSL-90-S16-S-0
370
     0
100
AcDbCircle
 10
503.9354670418906
 20
243.2648939902338
 30
0.0
 40
8.700000000000001
100
AcDbArc
 50
9.928191842286524
 51
80.07180815771429
  0
LINE
  5
186C
330
18
100
AcDbEntity
  8
MSL-90-S16-S-0
370
     0
100
AcDbLine
 10
505.4354670418907
 20
250.2648939902337
 30
0.0
 11
502.4354670418906
 21
250.2648939902337
 31
0.0
  0
LINE
  5
186D
330
18
100
AcDbEntity
  8
MSL-90-S16-S-0
370
     0
100
AcDbLine
 10
502.4354670418906
 20
250.2648939902337
 30
0.0
 11
502.4354670418906
 21
251.8346081044852
 31
0.0
  0
LINE
  5
186E
330
18
100
AcDbEntity
  8
MSL-90-S16-S-0
370
     0
100
AcDbLine
 10
512.505181156142
 20
241.7648939902338
 30
0.0
 11
510.9354670418906
 21
241.7648939902338
 31
0.0
  0
LINE
  5
186F
330
18
100
AcDbEntity
  8
MSL-90-S16-S-0
370
     0
100
AcDbLine
 10
510.9354670418906
 20
241.7648939902337
 30
0.0
 11
510.9354670418906
 21
244.7648939902338
 31
0.0
  0
LINE
  5
1870
330
18
100
AcDbEntity
  8
MSL-90-S16-S-0
370
     0
100
AcDbLine
 10
510.9354670418906
 20
244.7648939902338
 30
0.0
 11
512.505181156142
 21
244.7648939902338
 31
0.0
  0
ARC
  5
1875
330
18
100
AcDbEntity
  8
MSL-90-S16-S-0
370
     0
100
AcDbCircle
 10
503.9354670418906
 20
243.2648939902338
 30
0.0
 40
9.0
100
AcDbArc
 50
0.0
 51
9.594068226860525
  0
ARC
  5
1876
330
18
100
AcDbEntity
  8
MSL-90-S16-S-0
370
     0
100
AcDbCircle
 10
503.9354670418906
 20
243.2648939902338
 30
0.0
 40
9.0
100
AcDbArc
 50
80.40551776932101
 51
99.59406822686119
  0
ARC
  5
1877
330
18
100
AcDbEntity
  8
MSL-90-S16-S-0
370
     0
100
AcDbCircle
 10
503.9354670418906
 20
243.2648939902338
 30
0.0
 40
9.0
100
AcDbArc
 50
170.4059317731396
 51
189.5940682268604
  0
ARC
  5
1878
330
18
100
AcDbEntity
  8
MSL-90-S16-S-0
370
     0
100
AcDbCircle
 10
503.9354670418906
 20
243.2648939902338
 30
0.0
 40
9.0
100
AcDbArc
 50
260.4059317731395
 51
279.5940682268604
  0
ARC
  5
1879
330
18
100
AcDbEntity
  8
MSL-90-S16-S-0
370
     0
100
AcDbCircle
 10
503.9354670418906
 20
243.2648939902338
 30
0.0
 40
9.0
100
AcDbArc
 50
350.4004966905506
 51
0.0
  0
LINE
  5
188D
330
18
100
AcDbEntity
  8
MSL-90-S16-S-0
370
     0
100
AcDbLine
 10
176.0553959983369
 20
82.75941376217316
 30
0.0
 11
176.0553959983368
 21
80.20941376217313
 31
0.0
  0
LINE
  5
188E
330
18
100
AcDbEntity
  8
MSL-90-S16-S-0
370
     0
100
AcDbLine
 10
176.0553959983369
 20
87.25941376217315
 30
0.0
 11
176.0553959983369
 21
85.75941376217315
 31
0.0
  0
ARC
  5
188F
330
18
100
AcDbEntity
  8
MSL-90-S16-S-0
370
     0
100
AcDbCircle
 10
175.8553959983369
 20
87.25941376217319
 30
0.0
 40
0.2
100
AcDbArc
 50
0.0
 51
90.0
  0
LINE
  5
1890
330
18
100
AcDbEntity
  8
MSL-90-S16-S-0
370
     0
100
AcDbLine
 10
175.5553959983368
 20
87.45941376217315
 30
0.0
 11
175.8553959983369
 21
87.45941376217315
 31
0.0
  0
LINE
  5
1891
330
18
100
AcDbEntity
  8
MSL-90-S16-S-0
370
     0
100
AcDbLine
 10
176.0553959983369
 20
97.25941377731619
 30
0.0
 11
176.0553959983369
 21
95.75941376217315
 31
0.0
  0
LINE
  5
1892
330
18
100
AcDbEntity
  8
MSL-90-S16-S-0
370
     0
100
AcDbLine
 10
175.8553959983369
 20
95.55941376217317
 30
0.0
 11
175.5553959983368
 21
95.55941376217317
 31
0.0
  0
ARC
  5
1893
330
18
100
AcDbEntity
  8
MSL-90-S16-S-0
370
     0
100
AcDbCircle
 10
175.8553959983369
 20
95.75941376217313
 30
0.0
 40
0.2
100
AcDbArc
 50
270.0
 51
0.0
  0
LINE
  5
1894
330
18
100
AcDbEntity
  8
MSL-90-S16-S-0
370
     0
100
AcDbLine
 10
176.0553959983369
 20
164.2594137621732
 30
0.0
 11
176.0553959983369
 21
162.7594137621732
 31
0.0
  0
LINE
  5
1895
330
18
100
AcDbEntity
  8
MSL-90-S16-S-0
370
     0
100
AcDbLine
 10
176.0553959983369
 20
154.2594137621732
 30
0.0
 11
176.0553959983369
 21
152.7594137470301
 31
0.0
  0
ARC
  5
1896
330
18
100
AcDbEntity
  8
MSL-90-S16-S-0
370
     0
100
AcDbCircle
 10
175.8553959983369
 20
154.2594137621732
 30
0.0
 40
0.2
100
AcDbArc
 50
0.0
 51
90.0
  0
LINE
  5
1897
330
18
100
AcDbEntity
  8
MSL-90-S16-S-0
370
     0
100
AcDbLine
 10
175.5553959983368
 20
154.4594137621731
 30
0.0
 11
175.8553959983369
 21
154.4594137621731
 31
0.0
  0
LINE
  5
1898
330
18
100
AcDbEntity
  8
MSL-90-S16-S-0
370
     0
100
AcDbLine
 10
175.8553959983369
 20
162.5594137621732
 30
0.0
 11
175.5553959983368
 21
162.5594137621732
 31
0.0
  0
ARC
  5
1899
330
18
100
AcDbEntity
  8
MSL-90-S16-S-0
370
     0
100
AcDbCircle
 10
175.8553959983369
 20
162.7594137621731
 30
0.0
 40
0.2
100
AcDbArc
 50
270.0
 51
0.0
  0
LINE
  5
189C
330
18
100
AcDbEntity
  8
MSL-90-S16-S-0
370
     0
100
AcDbLine
 10
176.0553959983369
 20
169.8094137621732
 30
0.0
 11
176.0553959983369
 21
167.2594137621732
 31
0.0
  0
ARC
  5
189D
330
18
100
AcDbEntity
  8
MSL-90-S16-S-0
370
     0
100
AcDbCircle
 10
175.8553959983369
 20
169.8094137621732
 30
0.0
 40
0.2
100
AcDbArc
 50
0.0
 51
90.0
  0
LINE
  5
189E
330
18
100
AcDbEntity
  8
MSL-90-S16-S-0
370
     0
100
AcDbLine
 10
175.5553959983369
 20
170.0094137621731
 30
0.0
 11
175.8553959983369
 21
170.0094137621731
 31
0.0
  0
LINE
  5
189F
330
18
100
AcDbEntity
  8
MSL-90-S16-S-0
370
     0
100
AcDbLine
 10
176.0553959983369
 20
167.2594137621732
 30
0.0
 11
175.5553959983369
 21
167.2594137621732
 31
0.0
  0
LINE
  5
18A0
330
18
100
AcDbEntity
  8
MSL-90-S16-S-0
370
     0
100
AcDbLine
 10
175.5553959983368
 20
149.7594137605335
 30
0.0
 11
176.0553959983369
 21
149.7594137621731
 31
0.0
  0
LINE
  5
18A1
330
18
100
AcDbEntity
  8
MSL-90-S16-S-0
370
     0
100
AcDbLine
 10
176.0553959983369
 20
149.7594137621731
 30
0.0
 11
176.0553959983369
 21
140.2094137621731
 31
0.0
  0
LINE
  5
18A2
330
18
100
AcDbEntity
  8
MSL-90-S16-S-0
370
     0
100
AcDbLine
 10
175.7553959983369
 20
110.0094137621731
 30
0.0
 11
175.8553959983369
 21
110.0094137621731
 31
0.0
  0
ARC
  5
18A3
330
18
100
AcDbEntity
  8
MSL-90-S16-S-0
370
     0
100
AcDbCircle
 10
175.7553959983369
 20
110.2094137621731
 30
0.0
 40
0.2
100
AcDbArc
 50
180.0
 51
270.0
  0
ARC
  5
18A4
330
18
100
AcDbEntity
  8
MSL-90-S16-S-0
370
     0
100
AcDbCircle
 10
175.7553959983369
 20
139.8094137621731
 30
0.0
 40
0.2
100
AcDbArc
 50
90.0
 51
180.0
  0
LINE
  5
18A5
330
18
100
AcDbEntity
  8
MSL-90-S16-S-0
370
     0
100
AcDbLine
 10
175.8553959983369
 20
140.0094137621732
 30
0.0
 11
175.7553959983369
 21
140.0094137621732
 31
0.0
  0
ARC
  5
18A6
330
18
100
AcDbEntity
  8
MSL-90-S16-S-0
370
     0
100
AcDbCircle
 10
175.8553959983369
 20
140.2094137621731
 30
0.0
 40
0.2
100
AcDbArc
 50
270.0
 51
0.0
  0
LINE
  5
18A7
330
18
100
AcDbEntity
  8
MSL-90-S16-S-0
370
     0
100
AcDbLine
 10
176.0553959983369
 20
100.2594137621731
 30
0.0
 11
175.5553959983368
 21
100.2594137638128
 31
0.0
  0
LINE
  5
18A8
330
18
100
AcDbEntity
  8
MSL-90-S16-S-0
370
     0
100
AcDbLine
 10
176.0553959983369
 20
109.8094137621731
 30
0.0
 11
176.0553959983369
 21
100.2594137621731
 31
0.0
  0
ARC
  5
18A9
330
18
100
AcDbEntity
  8
MSL-90-S16-S-0
370
     0
100
AcDbCircle
 10
175.8553959983369
 20
109.8094137621731
 30
0.0
 40
0.2
100
AcDbArc
 50
0.0
 51
90.0
  0
LINE
  5
18AA
330
18
100
AcDbEntity
  8
MSL-90-S16-S-0
370
     0
100
AcDbLine
 10
175.8553959983369
 20
80.00941376217316
 30
0.0
 11
175.5553959983368
 21
80.00941376217316
 31
0.0
  0
ARC
  5
18AB
330
18
100
AcDbEntity
  8
MSL-90-S16-S-0
370
     0
100
AcDbCircle
 10
175.8553959983369
 20
80.20941376217317
 30
0.0
 40
0.2
100
AcDbArc
 50
270.0
 51
0.0
  0
LINE
  5
18AC
330
18
100
AcDbEntity
  8
MSL-90-S16-S-0
370
     0
100
AcDbLine
 10
175.5553959983368
 20
82.75941376217316
 30
0.0
 11
176.0553959983369
 21
82.75941376217316
 31
0.0
  0
LINE
  5
18AD
330
18
100
AcDbEntity
  8
MSL-90-S16-S-0
370
     0
100
AcDbLine
 10
176.0553959983369
 20
167.2594137621732
 30
0.0
 11
176.0553959983369
 21
164.2594137621732
 31
0.0
  0
LINE
  5
18AE
330
18
100
AcDbEntity
  8
MSL-90-S16-S-0
370
     0
100
AcDbLine
 10
176.0553959983369
 20
152.7594137470301
 30
0.0
 11
176.0553959983369
 21
149.7594137470301
 31
0.0
  0
LINE
  5
18AF
330
18
100
AcDbEntity
  8
MSL-90-S16-S-0
370
     0
100
AcDbLine
 10
176.0553959983369
 20
85.75941376217315
 30
0.0
 11
176.0553959983369
 21
82.75941376217316
 31
0.0
  0
LINE
  5
18B0
330
18
100
AcDbEntity
  8
MSL-90-S16-S-0
370
     0
100
AcDbLine
 10
176.0553959983369
 20
100.2594137773161
 30
0.0
 11
176.0553959983369
 21
97.25941377731619
 31
0.0
  0
LINE
  5
18B1
330
18
100
AcDbEntity
  8
MSL-90-S16-S-0
370
     0
100
AcDbLine
 10
91.05539599833692
 20
115.009413762173
 30
0.0
 11
91.05539599833697
 21
75.50941376217304
 31
0.0
  0
LINE
  5
18B2
330
18
100
AcDbEntity
  8
MSL-90-S16-S-0
370
     0
100
AcDbLine
 10
91.05539599833686
 20
135.0094137621731
 30
0.0
 11
91.55539599833685
 21
135.0094137621731
 31
0.0
  0
LINE
  5
18B3
330
18
100
AcDbEntity
  8
MSL-90-S16-S-0
370
     0
100
AcDbLine
 10
91.55539599833693
 20
115.009413762173
 30
0.0
 11
91.05539599833692
 21
115.009413762173
 31
0.0
  0
LINE
  5
18B4
330
18
100
AcDbEntity
  8
MSL-90-S16-S-0
370
     0
100
AcDbLine
 10
116.055395998337
 20
80.00941376217321
 30
0.0
 11
116.055395998337
 21
75.00941376217309
 31
0.0
  0
LINE
  5
18B5
330
18
100
AcDbEntity
  8
MSL-90-S16-S-0
370
     0
100
AcDbLine
 10
116.0553959983368
 20
175.0094137621731
 30
0.0
 11
116.0553959983368
 21
170.0094137621732
 31
0.0
  0
LINE
  5
18B6
330
18
100
AcDbEntity
  8
MSL-90-S16-S-0
370
     0
100
AcDbLine
 10
91.55539599833685
 20
175.0094137621731
 30
0.0
 11
116.0553959983368
 21
175.0094137621731
 31
0.0
  0
LINE
  5
18B7
330
18
100
AcDbEntity
  8
MSL-90-S16-S-0
370
     0
100
AcDbLine
 10
91.05539599833686
 20
174.5094137621731
 30
0.0
 11
91.05539599833686
 21
135.0094137621731
 31
0.0
  0
LINE
  5
18B8
330
18
100
AcDbEntity
  8
MSL-90-S16-S-0
370
     0
100
AcDbLine
 10
91.05539599833697
 20
75.50941376217309
 30
0.0
 11
91.55539599833703
 21
75.00941376217309
 31
0.0
  0
LINE
  5
18B9
330
18
100
AcDbEntity
  8
MSL-90-S16-S-0
370
     0
100
AcDbLine
 10
91.55539599833698
 20
75.00941376217304
 30
0.0
 11
116.055395998337
 21
75.00941376217309
 31
0.0
  0
LINE
  5
18BA
330
18
100
AcDbEntity
  8
MSL-90-S16-S-0
370
     0
100
AcDbLine
 10
91.55539599833685
 20
175.0094137621731
 30
0.0
 11
91.05539599833686
 21
174.5094137621731
 31
0.0
  0
LINE
  5
18BB
330
18
100
AcDbEntity
  8
MSL-90-S16-S-0
370
     0
100
AcDbLine
 10
120.8056205983368
 20
171.0035422951581
 30
0.0
 11
120.8056205983368
 21
172.9095064621693
 31
0.0
  0
ARC
  5
18BC
330
18
100
AcDbEntity
  8
MSL-90-S16-S-0
370
     0
100
AcDbCircle
 10
119.0556320983368
 20
171.0096044621692
 30
0.0
 40
1.749999
100
AcDbArc
 50
325.1424641629835
 51
359.8015214413745
  0
LINE
  5
18BD
330
18
100
AcDbEntity
  8
MSL-90-S16-S-0
370
     0
100
AcDbLine
 10
126.0556167983369
 20
170.0094137621732
 30
0.0
 11
126.0556167983369
 21
172.9095064621693
 31
0.0
  0
LINE
  5
18BE
330
18
100
AcDbEntity
  8
MSL-90-S16-S-0
370
     0
100
AcDbLine
 10
120.8056205983368
 20
172.9095064621692
 30
0.0
 11
126.0556167983369
 21
172.9095064621692
 31
0.0
  0
ARC
  5
18BF
330
18
100
AcDbEntity
  8
MSL-90-S16-S-0
370
     0
100
AcDbCircle
 10
119.0556167983368
 20
171.0094824621693
 30
0.0
 40
1.599999399999999
100
AcDbArc
 50
90.0
 51
218.6853562254059
  0
ARC
  5
18C0
330
18
100
AcDbEntity
  8
MSL-90-S16-S-0
370
     0
100
AcDbCircle
 10
119.0556167983368
 20
171.0094824621693
 30
0.0
 40
1.599999399999999
100
AcDbArc
 50
321.3146437745941
 51
90.0
  0
LINE
  5
18C1
330
18
100
AcDbEntity
  8
MSL-90-S16-S-0
370
     0
100
AcDbLine
 10
125.455364898256
 20
173.5091164621691
 30
0.0
 11
116.5554779983368
 21
173.5091164621691
 31
0.0
  0
LINE
  5
18C2
330
18
100
AcDbEntity
  8
MSL-90-S16-S-0
370
     0
100
AcDbLine
 10
116.5554779983367
 20
173.5091164621691
 30
0.0
 11
116.0553959983368
 21
173.0090344621692
 31
0.0
  0
LINE
  5
18C3
330
18
100
AcDbEntity
  8
MSL-90-S16-S-0
370
     0
100
AcDbLine
 10
125.6549503314587
 20
173.3095311952908
 30
0.0
 11
125.455364898256
 21
173.5091164621691
 31
0.0
  0
LINE
  5
18C4
330
18
100
AcDbEntity
  8
MSL-90-S16-S-0
370
     0
100
AcDbLine
 10
116.7556209983368
 20
170.0094137621733
 30
0.0
 11
116.7556209983368
 21
172.8094904621693
 31
0.0
  0
LINE
  5
18C5
330
18
100
AcDbEntity
  8
MSL-90-S16-S-0
370
     0
100
AcDbLine
 10
117.2556739983369
 20
173.3095334621692
 30
0.0
 11
125.6549505983368
 21
173.3095314621692
 31
0.0
  0
LINE
  5
18C6
330
18
100
AcDbEntity
  8
MSL-90-S16-S-0
370
     0
100
AcDbLine
 10
116.7556209983368
 20
172.8094904621692
 30
0.0
 11
117.2556739983369
 21
173.3095334621692
 31
0.0
  0
LINE
  5
18C7
330
18
100
AcDbEntity
  8
MSL-90-S16-S-0
370
     0
100
AcDbLine
 10
125.6549505983369
 20
173.3095314621692
 30
0.0
 11
126.0549753987955
 21
172.9095064621693
 31
0.0
  0
LINE
  5
18C8
330
18
100
AcDbEntity
  8
MSL-90-S16-S-0
370
     0
100
AcDbLine
 10
125.4554072983369
 20
173.5093660621768
 30
0.0
 11
125.6553634983369
 21
173.3094090621768
 31
0.0
  0
LINE
  5
18C9
330
18
100
AcDbEntity
  8
MSL-90-S16-S-0
370
     0
100
AcDbLine
 10
116.5553959983369
 20
173.5093600621767
 30
0.0
 11
125.4554072983369
 21
173.5093660621767
 31
0.0
  0
LINE
  5
18CA
330
18
100
AcDbEntity
  8
MSL-90-S16-S-0
370
     0
100
AcDbLine
 10
116.0553959983369
 20
173.0093500616368
 30
0.0
 11
116.5553959983369
 21
173.5093600621769
 31
0.0
  0
LINE
  5
18CB
330
18
100
AcDbEntity
  8
MSL-90-S16-S-0
370
     0
100
AcDbLine
 10
125.6553634983369
 20
173.3094090621769
 30
0.0
 11
126.0552638992276
 21
172.9095064621693
 31
0.0
  0
LINE
  5
18CC
330
18
100
AcDbEntity
  8
MSL-90-S16-S-0
370
     0
100
AcDbLine
 10
125.6550729985102
 20
173.3094090619348
 30
0.0
 11
125.6553634983369
 21
173.3094090621768
 31
0.0
  0
ARC
  5
18CD
330
18
100
AcDbEntity
  8
MSL-90-S16-S-0
370
     0
100
AcDbCircle
 10
119.0556167983369
 20
79.00934506217689
 30
0.0
 40
1.599999399999999
100
AcDbArc
 50
141.3146437745811
 51
38.68535622541888
  0
LINE
  5
18CE
330
18
100
AcDbEntity
  8
MSL-90-S16-S-0
370
     0
100
AcDbLine
 10
116.555477998337
 20
76.5097110621769
 30
0.0
 11
116.055395998337
 21
77.00979306217681
 31
0.0
  0
LINE
  5
18CF
330
18
100
AcDbEntity
  8
MSL-90-S16-S-0
370
     0
100
AcDbLine
 10
125.4553648982561
 20
76.50971106217696
 30
0.0
 11
116.555477998337
 21
76.50971106217696
 31
0.0
  0
LINE
  5
18D0
330
18
100
AcDbEntity
  8
MSL-90-S16-S-0
370
     0
100
AcDbLine
 10
125.6549500645802
 20
76.7092960621768
 30
0.0
 11
125.4553648982561
 21
76.50971106217696
 31
0.0
  0
LINE
  5
18D1
330
18
100
AcDbEntity
  8
MSL-90-S16-S-0
370
     0
100
AcDbLine
 10
116.755620998337
 20
77.20933706217692
 30
0.0
 11
116.755620998337
 21
80.00941376217321
 31
0.0
  0
LINE
  5
18D2
330
18
100
AcDbEntity
  8
MSL-90-S16-S-0
370
     0
100
AcDbLine
 10
117.255673998337
 20
76.70929406217692
 30
0.0
 11
116.755620998337
 21
77.20933706217692
 31
0.0
  0
LINE
  5
18D3
330
18
100
AcDbEntity
  8
MSL-90-S16-S-0
370
     0
100
AcDbLine
 10
126.0549753987956
 20
77.10932106217694
 30
0.0
 11
125.654950598337
 21
76.70929606217697
 31
0.0
  0
LINE
  5
18D4
330
18
100
AcDbEntity
  8
MSL-90-S16-S-0
370
     0
100
AcDbLine
 10
125.654950598337
 20
76.70929606217697
 30
0.0
 11
117.255673998337
 21
76.70929406217692
 31
0.0
  0
LINE
  5
18D5
330
18
100
AcDbEntity
  8
MSL-90-S16-S-0
370
     0
100
AcDbLine
 10
126.0556167983369
 20
77.10932106217694
 30
0.0
 11
126.0556167983369
 21
80.00941376217321
 31
0.0
  0
ARC
  5
18D6
330
18
100
AcDbEntity
  8
MSL-90-S16-S-0
370
     0
100
AcDbCircle
 10
119.055632098337
 20
79.00922306217691
 30
0.0
 40
1.749999
100
AcDbArc
 50
0.1984785586310611
 51
34.85753583702937
  0
LINE
  5
18D7
330
18
100
AcDbEntity
  8
MSL-90-S16-S-0
370
     0
100
AcDbLine
 10
120.8056205983369
 20
77.10932106217689
 30
0.0
 11
120.8056205983369
 21
79.01528522918813
 31
0.0
  0
LINE
  5
18D8
330
18
100
AcDbEntity
  8
MSL-90-S16-S-0
370
     0
100
AcDbLine
 10
126.0556167983369
 20
77.10932106217694
 30
0.0
 11
120.8056205983369
 21
77.10932106217694
 31
0.0
  0
LINE
  5
18D9
330
18
100
AcDbEntity
  8
MSL-90-S16-S-0
370
     0
100
AcDbLine
 10
92.05539599833681
 20
174.7594137621731
 30
0.0
 11
91.5553959983368
 21
174.2594137621731
 31
0.0
  0
LINE
  5
18DA
330
18
100
AcDbEntity
  8
MSL-90-S16-S-0
370
     0
100
AcDbLine
 10
109.055395998337
 20
75.2594137621731
 30
0.0
 11
92.05539599833697
 21
75.25941376217303
 31
0.0
  0
LINE
  5
18DB
330
18
100
AcDbEntity
  8
MSL-90-S16-S-0
370
     0
100
AcDbLine
 10
109.5553959983368
 20
174.2594137621731
 30
0.0
 11
109.5553959983368
 21
170.0094137621732
 31
0.0
  0
LINE
  5
18DC
330
18
100
AcDbEntity
  8
MSL-90-S16-S-0
370
     0
100
AcDbLine
 10
109.5553959983369
 20
80.00941376217321
 30
0.0
 11
109.5553959983369
 21
75.7594137621731
 31
0.0
  0
LINE
  5
18DD
330
18
100
AcDbEntity
  8
MSL-90-S16-S-0
370
     0
100
AcDbLine
 10
109.5553959983368
 20
174.2594137621731
 30
0.0
 11
109.0553959983368
 21
174.7594137621731
 31
0.0
  0
LINE
  5
18DE
330
18
100
AcDbEntity
  8
MSL-90-S16-S-0
370
     0
100
AcDbLine
 10
92.05539599833681
 20
174.7594137621731
 30
0.0
 11
109.0553959983368
 21
174.7594137621731
 31
0.0
  0
LINE
  5
18DF
330
18
100
AcDbEntity
  8
MSL-90-S16-S-0
370
     0
100
AcDbLine
 10
109.055395998337
 20
75.2594137621731
 30
0.0
 11
109.5553959983369
 21
75.75941376217315
 31
0.0
  0
LINE
  5
18E0
330
18
100
AcDbEntity
  8
MSL-90-S16-S-0
370
     0
100
AcDbLine
 10
91.55539599833698
 20
75.75941376217304
 30
0.0
 11
92.05539599833697
 21
75.25941376217303
 31
0.0
  0
LINE
  5
18E1
330
18
100
AcDbEntity
  8
MSL-90-S16-S-0
370
     0
100
AcDbLine
 10
91.55539599833698
 20
75.75941376217304
 30
0.0
 11
91.55539599833698
 21
83.00941376217314
 31
0.0
  0
LINE
  5
18E2
330
18
100
AcDbEntity
  8
MSL-90-S16-S-0
370
     0
100
AcDbLine
 10
91.55539599833685
 20
167.0094137621732
 30
0.0
 11
91.5553959983368
 21
174.2594137621731
 31
0.0
  0
CIRCLE
  5
18E7
330
18
100
AcDbEntity
  8
MSL-90-S16-S-0
370
     0
100
AcDbCircle
 10
138.0553959983367
 20
125.0094137621732
 30
0.0
 40
5.0
  0
CIRCLE
  5
18E8
330
18
100
AcDbEntity
  8
MSL-90-S16-S-0
370
     0
100
AcDbCircle
 10
138.0553959983367
 20
125.0094137621732
 30
0.0
 40
4.5
  0
CIRCLE
  5
18E9
330
18
100
AcDbEntity
  8
MSL-90-S16-S-0
370
     0
100
AcDbCircle
 10
103.0553959983368
 20
160.0094137621732
 30
0.0
 40
3.399999999999999
  0
CIRCLE
  5
18EA
330
18
100
AcDbEntity
  8
MSL-90-S16-S-0
370
     0
100
AcDbCircle
 10
161.0553959983368
 20
160.0094137621732
 30
0.0
 40
3.399999999999999
  0
CIRCLE
  5
18EB
330
18
100
AcDbEntity
  8
MSL-90-S16-S-0
370
     0
100
AcDbCircle
 10
103.0553959983368
 20
90.00941376217324
 30
0.0
 40
3.399999999999999
  0
CIRCLE
  5
18EC
330
18
100
AcDbEntity
  8
MSL-90-S16-S-0
370
     0
100
AcDbCircle
 10
161.0553959983368
 20
90.0094137621733
 30
0.0
 40
3.399999999999999
  0
LINE
  5
18ED
330
18
100
AcDbEntity
  8
MSL-90-S16-S-0
370
     0
100
AcDbLine
 10
175.5553959983368
 20
170.0094137621732
 30
0.0
 11
175.5553959983368
 21
80.00941376217321
 31
0.0
  0
LINE
  5
18EE
330
18
100
AcDbEntity
  8
MSL-90-S16-S-0
370
     0
100
AcDbLine
 10
94.55539599833686
 20
170.0094137621732
 30
0.0
 11
175.5553959983368
 21
170.0094137621732
 31
0.0
  0
CIRCLE
  5
18EF
330
18
100
AcDbEntity
  8
MSL-90-S16-S-0
370
     0
100
AcDbCircle
 10
138.0553959983368
 20
125.0094137621732
 30
0.0
 40
13.0
  0
LINE
  5
18F0
330
18
100
AcDbEntity
  8
MSL-90-S16-S-0
370
     0
100
AcDbLine
 10
175.5553959983368
 20
80.00941376217321
 30
0.0
 11
94.55539599833686
 21
80.00941376217321
 31
0.0
  0
LINE
  5
18F1
330
18
100
AcDbEntity
  8
MSL-90-S16-S-0
370
     0
100
AcDbLine
 10
91.55539599833685
 20
83.00941376217327
 30
0.0
 11
94.55539599833686
 21
80.00941376217326
 31
0.0
  0
LINE
  5
18F2
330
18
100
AcDbEntity
  8
MSL-90-S16-S-0
370
     0
100
AcDbLine
 10
94.55539599833686
 20
170.0094137621732
 30
0.0
 11
91.55539599833685
 21
167.0094137621732
 31
0.0
  0
LINE
  5
18F3
330
18
100
AcDbEntity
  8
MSL-90-S16-S-0
370
     0
100
AcDbLine
 10
91.55539599833685
 20
83.00941376217327
 30
0.0
 11
91.55539599833685
 21
167.0094137621732
 31
0.0
  0
CIRCLE
  5
18F4
330
18
100
AcDbEntity
  8
MSL-90-S16-S-0
370
     0
100
AcDbCircle
 10
168.5553959983368
 20
105.5594137621732
 30
0.0
 40
5.0
  0
CIRCLE
  5
18F5
330
18
100
AcDbEntity
  8
MSL-90-S16-S-0
370
     0
100
AcDbCircle
 10
132.0553959983368
 20
100.5094137621732
 30
0.0
 40
4.0
  0
CIRCLE
  5
18F6
330
18
100
AcDbEntity
  8
MSL-90-S16-S-0
370
     0
100
AcDbCircle
 10
132.0553959983368
 20
149.5094137621732
 30
0.0
 40
4.0
  0
CIRCLE
  5
18F7
330
18
100
AcDbEntity
  8
MSL-90-S16-S-0
370
     0
100
AcDbCircle
 10
168.5553959983368
 20
144.4594137621733
 30
0.0
 40
5.0
  0
ARC
  5
18F8
330
18
100
AcDbEntity
  8
MSL-90-S16-S-5
370
     0
100
AcDbCircle
 10
103.0553959983368
 20
160.0094137621732
 30
0.0
 40
4.0
100
AcDbArc
 50
344.9999999999989
 51
285.0
  0
ARC
  5
18F9
330
18
100
AcDbEntity
  8
MSL-90-S16-S-5
370
     0
100
AcDbCircle
 10
161.0553959983368
 20
160.0094137621732
 30
0.0
 40
4.0
100
AcDbArc
 50
344.9999999999989
 51
285.0000000000004
  0
ARC
  5
18FA
330
18
100
AcDbEntity
  8
MSL-90-S16-S-5
370
     0
100
AcDbCircle
 10
103.0553959983368
 20
90.00941376217324
 30
0.0
 40
4.0
100
AcDbArc
 50
345.0000000000005
 51
284.9999999999998
  0
ARC
  5
18FB
330
18
100
AcDbEntity
  8
MSL-90-S16-S-5
370
     0
100
AcDbCircle
 10
161.0553959983368
 20
90.0094137621733
 30
0.0
 40
4.0
100
AcDbArc
 50
344.9999999999996
 51
284.9999999999998
  0
ARC
  5
18FE
330
18
100
AcDbEntity
  8
MSL-90-S16-S-0
370
     0
100
AcDbCircle
 10
138.0553959983367
 20
125.0094137621731
 30
0.0
 40
7.608
100
AcDbArc
 50
121.3011453746282
 51
58.69759951844869
  0
CIRCLE
  5
1900
330
18
100
AcDbEntity
  8
MSL-90-S16-S-0
370
     0
100
AcDbCircle
 10
138.0553959983367
 20
125.0094137621732
 30
0.0
 40
10.392
  0
ARC
  5
1902
330
18
100
AcDbEntity
  8
MSL-90-S16-S-0
370
     0
100
AcDbCircle
 10
138.0553959983367
 20
125.0094137621732
 30
0.0
 40
8.099810179388008
100
AcDbArc
 50
95.312884378142
 51
110.2354483583279
  0
CIRCLE
  5
1903
330
18
100
AcDbEntity
  8
MSL-90-S16-S-0
370
     0
100
AcDbCircle
 10
140.3053959983367
 20
131.0094137621732
 30
0.0
 40
0.75
  0
CIRCLE
  5
1905
330
18
100
AcDbEntity
  8
MSL-90-S16-S-0
370
     0
100
AcDbCircle
 10
135.8053959983367
 20
131.0094137621732
 30
0.0
 40
0.75
  0
LINE
  5
1906
330
18
100
AcDbEntity
  8
MSL-90-S16-S-0
370
     0
100
AcDbLine
 10
133.0470107902291
 20
128.6076917586827
 30
0.0
 11
134.065326216928
 21
131.4149561878117
 31
0.0
  0
ARC
  5
1907
330
18
100
AcDbEntity
  8
MSL-90-S16-S-0
370
     0
100
AcDbCircle
 10
138.0553959983367
 20
124.5593405199856
 30
0.0
 40
6.43995886203106
100
AcDbArc
 50
141.0508825603027
 51
38.94284643479446
  0
ARC
  5
1908
330
18
100
AcDbEntity
  8
MSL-90-S16-S-0
370
     0
100
AcDbCircle
 10
140.1652592795867
 20
130.7329245043607
 30
0.0
 40
2.00003004538435
100
AcDbArc
 50
19.94228716524193
 51
69.76443341569866
  0
ARC
  5
1909
330
18
100
AcDbEntity
  8
MSL-90-S16-S-0
370
     0
100
AcDbCircle
 10
138.0554005240898
 20
125.0094624303162
 30
0.0
 40
8.09994191715538
100
AcDbArc
 50
69.76443341569842
 51
84.68722380205413
  0
ARC
  5
190B
330
18
100
AcDbEntity
  8
MSL-90-S16-S-0
370
     0
100
AcDbCircle
 10
135.9455327170868
 20
130.7329245043607
 30
0.0
 40
1.99993247673535
100
AcDbArc
 50
110.2354483583295
 51
160.0621161839536
  0
LINE
  5
190C
330
18
100
AcDbEntity
  8
MSL-90-S16-S-0
370
     0
100
AcDbLine
 10
142.0454133693522
 20
131.4151006892978
 30
0.0
 11
143.0642242672047
 21
128.6071435682626
 31
0.0
  0
LINE
  5
190D
330
18
100
AcDbEntity
  8
MSL-90-S16-S-0
370
     0
100
AcDbLine
 10
167.4006954599576
 20
103.5594137621732
 30
0.0
 11
166.2459949215783
 21
105.5594137621732
 31
0.0
  0
CIRCLE
  5
190E
330
18
100
AcDbEntity
  8
MSL-90-S16-S-0
370
     0
100
AcDbCircle
 10
168.5553959983368
 20
105.5594137621732
 30
0.0
 40
4.25
  0
LINE
  5
190F
330
18
100
AcDbEntity
  8
MSL-90-S16-S-0
370
     0
100
AcDbLine
 10
167.4006954599576
 20
107.5594137621732
 30
0.0
 11
169.7100965367161
 21
107.5594137621732
 31
0.0
  0
LINE
  5
1910
330
18
100
AcDbEntity
  8
MSL-90-S16-S-0
370
     0
100
AcDbLine
 10
166.2459949215783
 20
105.5594137621732
 30
0.0
 11
167.4006954599576
 21
107.5594137621732
 31
0.0
  0
LINE
  5
1911
330
18
100
AcDbEntity
  8
MSL-90-S16-S-0
370
     0
100
AcDbLine
 10
169.7100965367161
 20
103.5594137621732
 30
0.0
 11
167.4006954599576
 21
103.5594137621732
 31
0.0
  0
LINE
  5
1912
330
18
100
AcDbEntity
  8
MSL-90-S16-S-0
370
     0
100
AcDbLine
 10
170.8647970750953
 20
105.5594137621732
 30
0.0
 11
169.7100965367161
 21
103.5594137621732
 31
0.0
  0
LINE
  5
1913
330
18
100
AcDbEntity
  8
MSL-90-S16-S-0
370
     0
100
AcDbLine
 10
169.7100965367161
 20
107.5594137621732
 30
0.0
 11
170.8647970750953
 21
105.5594137621732
 31
0.0
  0
LINE
  5
1914
330
18
100
AcDbEntity
  8
MSL-90-S16-S-0
370
     0
100
AcDbLine
 10
167.4006954599576
 20
142.4594137621732
 30
0.0
 11
166.2459949215783
 21
144.4594137621732
 31
0.0
  0
CIRCLE
  5
1915
330
18
100
AcDbEntity
  8
MSL-90-S16-S-0
370
     0
100
AcDbCircle
 10
168.5553959983368
 20
144.4594137621733
 30
0.0
 40
4.25
  0
LINE
  5
1916
330
18
100
AcDbEntity
  8
MSL-90-S16-S-0
370
     0
100
AcDbLine
 10
166.2459949215783
 20
144.4594137621732
 30
0.0
 11
167.4006954599576
 21
146.4594137621732
 31
0.0
  0
LINE
  5
1917
330
18
100
AcDbEntity
  8
MSL-90-S16-S-0
370
     0
100
AcDbLine
 10
167.4006954599576
 20
146.4594137621732
 30
0.0
 11
169.7100965367161
 21
146.4594137621732
 31
0.0
  0
LINE
  5
1918
330
18
100
AcDbEntity
  8
MSL-90-S16-S-0
370
     0
100
AcDbLine
 10
169.7100965367161
 20
142.4594137621732
 30
0.0
 11
167.4006954599576
 21
142.4594137621732
 31
0.0
  0
LINE
  5
1919
330
18
100
AcDbEntity
  8
MSL-90-S16-S-0
370
     0
100
AcDbLine
 10
169.7100965367161
 20
146.4594137621732
 30
0.0
 11
170.8647970750954
 21
144.4594137621732
 31
0.0
  0
LINE
  5
191A
330
18
100
AcDbEntity
  8
MSL-90-S16-S-0
370
     0
100
AcDbLine
 10
170.8647970750954
 20
144.4594137621732
 30
0.0
 11
169.7100965367161
 21
142.4594137621732
 31
0.0
  0
CIRCLE
  5
191B
330
18
100
AcDbEntity
  8
MSL-90-S16-S-0
370
     0
100
AcDbCircle
 10
132.0553959983368
 20
100.5094137621732
 30
0.0
 40
3.499999999999999
  0
LINE
  5
191C
330
18
100
AcDbEntity
  8
MSL-90-S16-S-0
370
     0
100
AcDbLine
 10
131.1893705945524
 20
99.00941376217321
 30
0.0
 11
130.323345190768
 21
100.5094137621732
 31
0.0
  0
LINE
  5
191D
330
18
100
AcDbEntity
  8
MSL-90-S16-S-0
370
     0
100
AcDbLine
 10
132.9214214021213
 20
99.00941376217321
 30
0.0
 11
131.1893705945524
 21
99.00941376217321
 31
0.0
  0
LINE
  5
191E
330
18
100
AcDbEntity
  8
MSL-90-S16-S-0
370
     0
100
AcDbLine
 10
130.323345190768
 20
100.5094137621732
 30
0.0
 11
131.1893705945524
 21
102.0094137621732
 31
0.0
  0
LINE
  5
191F
330
18
100
AcDbEntity
  8
MSL-90-S16-S-0
370
     0
100
AcDbLine
 10
131.1893705945524
 20
102.0094137621732
 30
0.0
 11
132.9214214021212
 21
102.0094137621732
 31
0.0
  0
LINE
  5
1920
330
18
100
AcDbEntity
  8
MSL-90-S16-S-0
370
     0
100
AcDbLine
 10
133.7874468059057
 20
100.5094137621732
 30
0.0
 11
132.9214214021212
 21
99.00941376217321
 31
0.0
  0
LINE
  5
1921
330
18
100
AcDbEntity
  8
MSL-90-S16-S-0
370
     0
100
AcDbLine
 10
132.9214214021213
 20
102.0094137621732
 30
0.0
 11
133.7874468059058
 21
100.5094137621732
 31
0.0
  0
LINE
  5
1922
330
18
100
AcDbEntity
  8
MSL-90-S16-S-0
370
     0
100
AcDbLine
 10
132.9214214021213
 20
151.0094137621732
 30
0.0
 11
133.7874468059058
 21
149.5094137621732
 31
0.0
  0
LINE
  5
1923
330
18
100
AcDbEntity
  8
MSL-90-S16-S-0
370
     0
100
AcDbLine
 10
133.7874468059058
 20
149.5094137621732
 30
0.0
 11
132.9214214021213
 21
148.0094137621732
 31
0.0
  0
CIRCLE
  5
1924
330
18
100
AcDbEntity
  8
MSL-90-S16-S-0
370
     0
100
AcDbCircle
 10
132.0553959983368
 20
149.5094137621732
 30
0.0
 40
3.499999999999999
  0
LINE
  5
1925
330
18
100
AcDbEntity
  8
MSL-90-S16-S-0
370
     0
100
AcDbLine
 10
131.1893705945524
 20
148.0094137621732
 30
0.0
 11
130.323345190768
 21
149.5094137621732
 31
0.0
  0
LINE
  5
1926
330
18
100
AcDbEntity
  8
MSL-90-S16-S-0
370
     0
100
AcDbLine
 10
130.323345190768
 20
149.5094137621732
 30
0.0
 11
131.1893705945524
 21
151.0094137621732
 31
0.0
  0
LINE
  5
1927
330
18
100
AcDbEntity
  8
MSL-90-S16-S-0
370
     0
100
AcDbLine
 10
131.1893705945524
 20
151.0094137621732
 30
0.0
 11
132.9214214021212
 21
151.0094137621732
 31
0.0
  0
LINE
  5
1928
330
18
100
AcDbEntity
  8
MSL-90-S16-S-0
370
     0
100
AcDbLine
 10
132.9214214021213
 20
148.0094137621732
 30
0.0
 11
131.1893705945524
 21
148.0094137621732
 31
0.0
  0
LINE
  5
1A33
330
18
100
AcDbEntity
  8
MSL-90-S16-S-0
370
     0
100
AcDbLine
 10
233.4354670418909
 20
170.0091503041149
 30
0.0
 11
263.4354670418909
 21
170.0091503041149
 31
0.0
  0
LINE
  5
1A34
330
18
100
AcDbEntity
  8
MSL-90-S16-S-0
370
     0
100
AcDbLine
 10
233.4354670418909
 20
167.0091503041149
 30
0.0
 11
233.4354670418909
 21
170.0091503041149
 31
0.0
  0
LINE
  5
1A35
330
18
100
AcDbEntity
  8
MSL-90-S16-S-0
370
     0
100
AcDbLine
 10
233.4354670418909
 20
167.0091503041149
 30
0.0
 11
233.4354670418909
 21
83.00915030411491
 31
0.0
  0
LINE
  5
1A37
330
18
100
AcDbEntity
  8
MSL-90-S16-S-0
370
     0
100
AcDbLine
 10
263.4354670418909
 20
167.0091503041149
 30
0.0
 11
233.4354670418909
 21
167.0091503041149
 31
0.0
  0
LINE
  5
1A38
330
18
100
AcDbEntity
  8
MSL-90-S16-S-0
370
     0
100
AcDbLine
 10
233.4354670418909
 20
83.00915030411491
 30
0.0
 11
263.4354670418909
 21
83.00915030411491
 31
0.0
  0
LINE
  5
1A39
330
18
100
AcDbEntity
  8
MSL-90-S16-S-0
370
     0
100
AcDbLine
 10
233.4354670418909
 20
80.00915030411491
 30
0.0
 11
233.4354670418909
 21
83.00915030411491
 31
0.0
  0
LINE
  5
1A3A
330
18
100
AcDbEntity
  8
MSL-90-S16-S-0
370
     0
100
AcDbLine
 10
263.4354670418909
 20
80.00915030411491
 30
0.0
 11
233.4354670418909
 21
80.00915030411491
 31
0.0
  0
LINE
  5
1A3B
330
18
100
AcDbEntity
  8
MSL-90-S16-S-0
370
     0
100
AcDbLine
 10
220.9354670418909
 20
121.0091503041148
 30
0.0
 11
220.9354670418909
 21
129.0091503041148
 31
0.0
  0
LINE
  5
1A3C
330
18
100
AcDbEntity
  8
MSL-90-S16-S-0
370
     0
100
AcDbLine
 10
221.4354670418909
 20
129.5091503041147
 30
0.0
 11
221.4354670418909
 21
120.5091503041149
 31
0.0
  0
LINE
  5
1A3D
330
18
100
AcDbEntity
  8
MSL-90-S16-S-0
370
     0
100
AcDbLine
 10
233.4354670418909
 20
129.5091503041148
 30
0.0
 11
221.4354670418909
 21
129.5091503041148
 31
0.0
  0
LINE
  5
1A3E
330
18
100
AcDbEntity
  8
MSL-90-S16-S-0
370
     0
100
AcDbLine
 10
221.4354670418909
 20
129.5091503041148
 30
0.0
 11
220.9354670418909
 21
129.0091503041148
 31
0.0
  0
LINE
  5
1A3F
330
18
100
AcDbEntity
  8
MSL-90-S16-S-0
370
     0
100
AcDbLine
 10
221.4354670418909
 20
120.5091503041148
 30
0.0
 11
233.4354670418909
 21
120.5091503041148
 31
0.0
  0
LINE
  5
1A40
330
18
100
AcDbEntity
  8
MSL-90-S16-S-0
370
     0
100
AcDbLine
 10
220.9354670418909
 20
121.0091503041148
 30
0.0
 11
221.4354670418909
 21
120.5091503041148
 31
0.0
  0
LINE
  5
1A49
330
18
100
AcDbEntity
  8
MSL-90-S16-S-7A
370
     0
100
AcDbLine
 10
96.10539599833687
 20
243.4648939902214
 30
0.0
 11
77.30539599833683
 21
243.4648939902214
 31
0.0
  0
LINE
  5
1A5C
330
18
100
AcDbEntity
  8
MSL-90-S16-S-0
100
AcDbLine
 10
263.4354670418909
 20
80.00915030411491
 30
0.0
 11
266.435467041891
 21
80.00915030411491
 31
0.0
  0
LINE
  5
1A5D
330
18
100
AcDbEntity
  8
MSL-90-S16-S-7A
100
AcDbLine
 10
155.3053959983368
 20
90.00941376217326
 30
0.0
 11
166.8053959983368
 21
90.00941376217326
 31
0.0
  0
LINE
  5
1A5E
330
18
100
AcDbEntity
  8
MSL-90-S16-S-7A
100
AcDbLine
 10
161.0553959983368
 20
84.25941376217327
 30
0.0
 11
161.0553959983368
 21
95.00941376217326
 31
0.0
  0
LINE
  5
1A5F
330
18
100
AcDbEntity
  8
MSL-90-S16-S-7A
100
AcDbLine
 10
161.0553959983368
 20
154.2594137621732
 30
0.0
 11
161.0553959983368
 21
165.0094137621732
 31
0.0
  0
LINE
  5
1A60
330
18
100
AcDbEntity
  8
MSL-90-S16-S-7A
100
AcDbLine
 10
155.3053959983368
 20
160.0094137621732
 30
0.0
 11
166.8053959983368
 21
160.0094137621732
 31
0.0
  0
LINE
  5
1A63
330
18
100
AcDbEntity
  8
MSL-90-S16-S-7A
100
AcDbLine
 10
103.0553959983368
 20
154.2594137621732
 30
0.0
 11
103.0553959983368
 21
165.0094137621732
 31
0.0
  0
LINE
  5
1A64
330
18
100
AcDbEntity
  8
MSL-90-S16-S-7A
100
AcDbLine
 10
97.30539599833686
 20
160.0094137621732
 30
0.0
 11
108.8053959983368
 21
160.0094137621732
 31
0.0
  0
LINE
  5
1A65
330
18
100
AcDbEntity
  8
MSL-90-S16-S-7A
100
AcDbLine
 10
103.0553959983368
 20
84.25941376217322
 30
0.0
 11
103.0553959983368
 21
95.00941376217321
 31
0.0
  0
LINE
  5
1A66
330
18
100
AcDbEntity
  8
MSL-90-S16-S-7A
100
AcDbLine
 10
97.30539599833686
 20
90.00941376217321
 30
0.0
 11
108.8053959983368
 21
90.00941376217321
 31
0.0
  0
LINE
  5
1A67
330
18
100
AcDbEntity
  8
MSL-90-S16-S-7A
100
AcDbLine
 10
123.3053959983368
 20
125.0094137621732
 30
0.0
 11
152.8053959983368
 21
125.0094137621732
 31
0.0
  0
LINE
  5
1A68
330
18
100
AcDbEntity
  8
MSL-90-S16-S-7A
100
AcDbLine
 10
138.0553959983368
 20
110.2594137621732
 30
0.0
 11
138.0553959983368
 21
139.7594137621732
 31
0.0
  0
CIRCLE
  5
1A6A
330
18
100
AcDbEntity
  8
MSL-90-S16-S-7A
100
AcDbCircle
 10
503.9354670418906
 20
243.2648939902338
 30
0.0
 40
29.99999999999996
  0
LINE
  5
1A7A
330
18
100
AcDbEntity
  8
MSL-90-S16-S-0
 48
2.0
100
AcDbLine
 10
89.55539599832436
 20
90.00941376217324
 30
0.0
 11
89.55539599832441
 21
100.0094137621731
 31
0.0
  0
LINE
  5
1A7B
330
18
100
AcDbEntity
  8
MSL-90-S16-S-0
 48
2.0
100
AcDbLine
 10
89.05539599832442
 20
99.50941376217315
 30
0.0
 11
89.05539599832435
 21
90.50941376217323
 31
0.0
  0
LINE
  5
1A7C
330
18
100
AcDbEntity
  8
MSL-90-S16-S-0
 48
2.0
100
AcDbLine
 10
89.05539599832435
 20
90.50941376217323
 30
0.0
 11
89.55539599832436
 21
90.00941376217324
 31
0.0
  0
LINE
  5
1A7D
330
18
100
AcDbEntity
  8
MSL-90-S16-S-0
 48
2.0
100
AcDbLine
 10
89.55539599832436
 20
90.00941376217324
 30
0.0
 11
91.05539599832436
 21
90.00941376217324
 31
0.0
  0
LINE
  5
1A7E
330
18
100
AcDbEntity
  8
MSL-90-S16-S-7A
 48
2.0
100
AcDbLine
 10
85.53017386657071
 20
95.00941376217324
 30
0.0
 11
97.75677663623618
 21
95.00941376217324
 31
0.0
  0
LINE
  5
1A7F
330
18
100
AcDbEntity
  8
MSL-90-S16-S-0
 48
2.0
100
AcDbLine
 10
89.55539599832441
 20
100.0094137621731
 30
0.0
 11
89.05539599832442
 21
99.50941376217315
 31
0.0
  0
LINE
  5
1A80
330
18
100
AcDbEntity
  8
MSL-90-S16-S-0
 48
2.0
100
AcDbLine
 10
91.05539599832436
 20
100.0094137621731
 30
0.0
 11
89.55539599832441
 21
100.0094137621731
 31
0.0
  0
LINE
  5
1A81
330
18
100
AcDbEntity
  8
MSL-90-S16-S-7A
 48
2.0
100
AcDbLine
 10
85.53017386657071
 20
155.0094137621732
 30
0.0
 11
97.75677663623618
 21
155.0094137621732
 31
0.0
  0
LINE
  5
1A82
330
18
100
AcDbEntity
  8
MSL-90-S16-S-0
 48
2.0
100
AcDbLine
 10
89.05539599832442
 20
159.5094137621731
 30
0.0
 11
89.05539599832435
 21
150.5094137621732
 31
0.0
  0
LINE
  5
1A83
330
18
100
AcDbEntity
  8
MSL-90-S16-S-0
 48
2.0
100
AcDbLine
 10
89.55539599832436
 20
150.0094137621732
 30
0.0
 11
89.55539599832441
 21
160.0094137621731
 31
0.0
  0
LINE
  5
1A84
330
18
100
AcDbEntity
  8
MSL-90-S16-S-0
 48
2.0
100
AcDbLine
 10
89.55539599832436
 20
150.0094137621732
 30
0.0
 11
91.05539599832436
 21
150.0094137621732
 31
0.0
  0
LINE
  5
1A85
330
18
100
AcDbEntity
  8
MSL-90-S16-S-0
 48
2.0
100
AcDbLine
 10
89.05539599832435
 20
150.5094137621732
 30
0.0
 11
89.55539599832436
 21
150.0094137621732
 31
0.0
  0
LINE
  5
1A86
330
18
100
AcDbEntity
  8
MSL-90-S16-S-0
 48
2.0
100
AcDbLine
 10
91.05539599832436
 20
160.0094137621731
 30
0.0
 11
89.55539599832441
 21
160.0094137621731
 31
0.0
  0
LINE
  5
1A87
330
18
100
AcDbEntity
  8
MSL-90-S16-S-0
 48
2.0
100
AcDbLine
 10
89.55539599832441
 20
160.0094137621731
 30
0.0
 11
89.05539599832442
 21
159.5094137621731
 31
0.0
  0
LINE
  5
1A8B
330
18
100
AcDbEntity
  8
MSL-90-S16-S-7A
100
AcDbLine
 10
479.5402830909549
 20
267.6600779411697
 30
0.0
 11
485.9042441216335
 21
261.2961169104906
 31
0.0
  0
LINE
  5
1A8E
330
18
100
AcDbEntity
  8
MSL-90-S16-S-7A
100
AcDbLine
 10
528.3306509928263
 20
267.6600779411697
 30
0.0
 11
521.9666899621477
 21
261.2961169104906
 31
0.0
  0
LINE
  5
1A8F
330
18
100
AcDbEntity
  8
MSL-90-S16-S-7A
100
AcDbLine
 10
479.5402830909549
 20
218.869710039298
 30
0.0
 11
485.9042441216335
 21
225.2336710699771
 31
0.0
  0
LINE
  5
1A90
330
18
100
AcDbEntity
  8
MSL-90-S16-S-7A
100
AcDbLine
 10
528.3306509928263
 20
218.869710039298
 30
0.0
 11
521.9666899621477
 21
225.2336710699771
 31
0.0
  0
MTEXT
  5
1ABA
330
18
100
AcDbEntity
  8
MSL-90-S16-S-6
100
AcDbMText
 10
127.8058641460214
 20
226.5576075620121
 30
0.0
 40
3.5
 41
56.4726
 71
     1
 72
     5
  1
MSL 90-S16-S-100
 73
     1
 44
1.0
1001
ACAD
1000
MTEXTBEGIN
1070
    73
1070
     1
1070
    44
1040
1.0
1070
    74
1070
     0
1000
MTEXTEND
  0
DIMENSION
  5
1AD3
330
18
100
AcDbEntity
  8
MSL-90-S16-S-6
100
AcDbDimension
  2
*D0
 10
411.0553959983369
 20
188.2480089157752
 30
0.0
 11
251.0553959983369
 21
191.4983534039641
 31
0.0
 70
    32
 71
     5
 42
-1.0
  3
GEN-ISO
100
AcDbAlignedDimension
 13
91.05539599833686
 23
205.9648939902213
 33
0.0
 14
411.0553959983369
 24
205.9648939902212
 34
0.0
100
AcDbRotatedDimension
  0
ENDSEC
  0
SECTION
  2
OBJECTS
  0
DICTIONARY
  5
C
330
0
100
AcDbDictionary
281
     1
  3
ACAD_COLOR
350
1B07
  3
ACAD_GROUP
350
D
  3
ACAD_LAYOUT
350
1B1F
  3
ACAD_MATERIAL
350
1ADD
  3
ACAD_MLEADERSTYLE
350
1B1C
  3
ACAD_MLINESTYLE
350
E
  3
ACAD_PLOTSETTINGS
350
1B20
  3
ACAD_PLOTSTYLENAME
350
1ADB
  3
ACAD_SCALELIST
350
1B0A
  3
ACAD_TABLESTYLE
350
1B08
  3
ACAD_VISUALSTYLE
350
1AF6
  3
ACDB_RECOMPOSE_DATA
350
1BE1
  3
AcDbVariableDictionary
350
1BD8
  3
AcmDictionary
350
1B81
  3
AcmSystemVariableManager
350
1BEF
  3
AMG
350
1B26
  3
AMGSNAPSETTINGS
350
1BD1
  3
DWGPROPS
350
1BE2
  0
DICTIONARY
  5
1BC5
330
F
100
AcDbDictionary
280
     1
281
     1
  3
ADSK_XREC_LAYER_RECONCILED
360
1BC6
  0
DICTIONARY
  5
1BC7
330
1125
100
AcDbDictionary
280
     1
281
     1
  3
ADSK_XREC_LAYER_RECONCILED
360
1BC8
  0
DICTIONARY
  5
1BC9
330
1126
100
AcDbDictionary
280
     1
281
     1
  3
ADSK_XREC_LAYER_RECONCILED
360
1BCA
  0
DICTIONARY
  5
1BCB
330
1127
100
AcDbDictionary
280
     1
281
     1
  3
ADSK_XREC_LAYER_RECONCILED
360
1BCC
  0
DICTIONARY
  5
1BCD
330
1128
100
AcDbDictionary
280
     1
281
     1
  3
ADSK_XREC_LAYER_RECONCILED
360
1BCE
  0
DICTIONARY
  5
1BCF
330
1AB9
100
AcDbDictionary
280
     1
281
     1
  3
ADSK_XREC_LAYER_RECONCILED
360
1BD0
  0
DICTIONARY
  5
1B07
102
{ACAD_REACTORS
330
C
102
}
330
C
100
AcDbDictionary
281
     1
  0
DICTIONARY
  5
D
102
{ACAD_REACTORS
330
C
102
}
330
C
100
AcDbDictionary
281
     1
  0
DICTIONARY
  5
1B1F
102
{ACAD_REACTORS
330
C
102
}
330
C
100
AcDbDictionary
281
     1
  3
Layout1
350
1B22
  3
Model
350
1B21
  0
DICTIONARY
  5
1ADD
102
{ACAD_REACTORS
330
C
102
}
330
C
100
AcDbDictionary
281
     1
  3
ByBlock
350
1AE6
  3
ByLayer
350
1ADE
  3
Global
350
1AEE
  0
DICTIONARY
  5
1B1C
102
{ACAD_REACTORS
330
C
102
}
330
C
100
AcDbDictionary
281
     1
  3
Standard
350
1B1D
  0
DICTIONARY
  5
E
102
{ACAD_REACTORS
330
C
102
}
330
C
100
AcDbDictionary
281
     1
  3
STANDARD
350
1B
  0
DICTIONARY
  5
1B20
102
{ACAD_REACTORS
330
C
102
}
330
C
100
AcDbDictionary
281
     1
  0
ACDBDICTIONARYWDFLT
  5
1ADB
102
{ACAD_REACTORS
330
C
102
}
330
C
100
AcDbDictionary
281
     1
  3
Normal
350
1ADC
100
AcDbDictionaryWithDefault
340
1ADC
  0
DICTIONARY
  5
1B0A
102
{ACAD_REACTORS
330
C
102
}
330
C
100
AcDbDictionary
281
     1
  3
A0
350
1B0B
  3
A1
350
1B0C
  3
A2
350
1B0D
  3
A3
350
1B0E
  3
A4
350
1B0F
  3
A5
350
1B10
  3
A6
350
1B11
  3
A7
350
1B12
  3
A8
350
1B13
  3
A9
350
1B14
  3
B0
350
1B15
  3
B1
350
1B16
  3
B2
350
1B17
  3
B3
350
1B18
  3
B4
350
1B19
  3
B5
350
1B1A
  3
B6
350
1B1B
  0
DICTIONARY
  5
1B08
102
{ACAD_REACTORS
330
C
102
}
330
C
100
AcDbDictionary
281
     1
  3
Standard
350
1B09
  0
DICTIONARY
  5
1AF6
102
{ACAD_REACTORS
330
C
102
}
330
C
100
AcDbDictionary
281
     1
  3
2dWireframe
350
1AFC
  3
3D Hidden
350
1AFE
  3
3dWireframe
350
1AFD
  3
Basic
350
1AFB
  3
Brighten
350
1B02
  3
ColorChange
350
1B06
  3
Conceptual
350
1AFF
  3
Dim
350
1B01
  3
Facepattern
350
1B05
  3
Flat
350
1AF7
  3
FlatWithEdges
350
1AF8
  3
Gouraud
350
1AF9
  3
GouraudWithEdges
350
1AFA
  3
Linepattern
350
1B04
  3
Realistic
350
1B00
  3
Thicken
350
1B03
  0
XRECORD
  5
1BE1
102
{ACAD_REACTORS
330
C
102
}
330
C
100
AcDbXrecord
280
     1
 90
        1
330
1B09
  0
DICTIONARY
  5
1BD8
102
{ACAD_REACTORS
330
C
102
}
330
C
100
AcDbDictionary
281
     1
  3
CANNOSCALE
350
1BDB
  3
CMLEADERSTYLE
350
1BDA
  3
CTABLESTYLE
350
1BD9
  3
DIMASSOC
350
1BDE
  3
INDEXCTL
350
1BDD
  3
SORTENTS
350
1BDC
  0
DICTIONARY
  5
1B81
102
{ACAD_REACTORS
330
C
102
}
330
C
100
AcDbDictionary
281
     1
  3
AcmStdDictionary
350
1B8C
  0
DICTIONARY
  5
1B26
102
{ACAD_REACTORS
330
C
102
}
330
C
100
AcDbDictionary
281
     1
  0
DICTIONARY
  5
1BD1
102
{ACAD_REACTORS
330
C
102
}
330
C
100
AcDbDictionary
281
     1
  0
XRECORD
  5
1BE2
102
{ACAD_REACTORS
330
C
102
}
330
C
100
AcDbXrecord
280
     1
  1
DWGPROPS COOKIE
  2

  3

  4

  6

  7

  8
bauer_sven
  9

300
=
301
=
302
=
303
=
304
=
305
=
306
=
307
=
308
=
309
=
 40
0.1061805787037037
 41
2452400.57943588
 42
2456219.404128091
  1

 90
        0
  0
XRECORD
  5
1BC6
102
{ACAD_REACTORS
330
1BC5
102
}
330
1BC5
100
AcDbXrecord
280
     1
290
     1
  0
XRECORD
  5
1BC8
102
{ACAD_REACTORS
330
1BC7
102
}
330
1BC7
100
AcDbXrecord
280
     1
290
     1
  0
XRECORD
  5
1BCA
102
{ACAD_REACTORS
330
1BC9
102
}
330
1BC9
100
AcDbXrecord
280
     1
290
     1
  0
XRECORD
  5
1BCC
102
{ACAD_REACTORS
330
1BCB
102
}
330
1BCB
100
AcDbXrecord
280
     1
290
     1
  0
XRECORD
  5
1BCE
102
{ACAD_REACTORS
330
1BCD
102
}
330
1BCD
100
AcDbXrecord
280
     1
290
     1
  0
XRECORD
  5
1BD0
102
{ACAD_REACTORS
330
1BCF
102
}
330
1BCF
100
AcDbXrecord
280
     1
290
     1
  0
LAYOUT
  5
1B22
102
{ACAD_XDICTIONARY
360
1BE9
102
}
102
{ACAD_REACTORS
330
1B1F
102
}
330
1B1F
100
AcDbPlotSettings
  1

  2
iR 2570CN-010
  4

  6

 40
0.0
 41
0.0
 42
0.0
 43
0.0
 44
0.0
 45
0.0
 46
0.0
 47
0.0
 48
0.0
 49
0.0
140
0.0
141
0.0
142
1.0
143
1.0
 70
   688
 72
     0
 73
     0
 74
     5
  7

 75
    16
147
1.0
148
0.0
149
0.0
100
AcDbLayout
  1
Layout1
 70
     1
 71
     1
 10
0.0
 20
0.0
 11
420.0
 21
297.0
 12
0.0
 22
0.0
 32
0.0
 14
1.000000000000000E+20
 24
1.000000000000000E+20
 34
1.000000000000000E+20
 15
-1.000000000000000E+20
 25
-1.000000000000000E+20
 35
-1.000000000000000E+20
146
0.0
 13
0.0
 23
0.0
 33
0.0
 16
1.0
 26
0.0
 36
0.0
 17
0.0
 27
1.0
 37
0.0
 76
     0
330
15
  0
LAYOUT
  5
1B21
102
{ACAD_XDICTIONARY
360
1BE7
102
}
102
{ACAD_REACTORS
330
1B1F
102
}
330
1B1F
100
AcDbPlotSettings
  1

  2
iR 2570CN-010
  4

  6

 40
0.0
 41
0.0
 42
0.0
 43
0.0
 44
0.0
 45
0.0
 46
0.0
 47
0.0
 48
0.0
 49
0.0
140
0.0
141
0.0
142
1.0
143
1.0
 70
  1712
 72
     0
 73
     0
 74
     0
  7

 75
     0
147
1.0
148
0.0
149
0.0
100
AcDbLayout
  1
Model
 70
     1
 71
     0
 10
0.0
 20
0.0
 11
12.0
 21
9.0
 12
0.0
 22
0.0
 32
0.0
 14
0.0
 24
0.0
 34
0.0
 15
0.0
 25
0.0
 35
0.0
146
0.0
 13
0.0
 23
0.0
 33
0.0
 16
1.0
 26
0.0
 36
0.0
 17
0.0
 27
1.0
 37
0.0
 76
     0
330
18
331
1AD9
  0
MATERIAL
  5
1AE6
102
{ACAD_XDICTIONARY
360
1AE7
102
}
102
{ACAD_REACTORS
330
1ADD
102
}
330
1ADD
100
AcDbMaterial
  1
ByBlock
 72
     0
 43
0.0208333333333333
 43
0.0
 43
0.0
 43
0.0
 43
0.0
 43
0.0208333333333333
 43
0.0
 43
0.0
 43
0.0
 43
0.0
 43
1.0
 43
0.0
 43
0.0
 43
0.0
 43
0.0
 43
1.0
 77
     0
 47
0.0208333333333333
 47
0.0
 47
0.0
 47
0.0
 47
0.0
 47
0.0208333333333333
 47
0.0
 47
0.0
 47
0.0
 47
0.0
 47
1.0
 47
0.0
 47
0.0
 47
0.0
 47
0.0
 47
1.0
171
     0
 49
0.0208333333333333
 49
0.0
 49
0.0
 49
0.0
 49
0.0
 49
0.0208333333333333
 49
0.0
 49
0.0
 49
0.0
 49
0.0
 49
1.0
 49
0.0
 49
0.0
 49
0.0
 49
0.0
 49
1.0
175
     0
142
0.0208333333333333
142
0.0
142
0.0
142
0.0
142
0.0
142
0.0208333333333333
142
0.0
142
0.0
142
0.0
142
0.0
142
1.0
142
0.0
142
0.0
142
0.0
142
0.0
142
1.0
179
     0
144
0.0208333333333333
144
0.0
144
0.0
144
0.0
144
0.0
144
0.0208333333333333
144
0.0
144
0.0
144
0.0
144
0.0
144
1.0
144
0.0
144
0.0
144
0.0
144
0.0
144
1.0
147
0.0208333333333333
147
0.0
147
0.0
147
0.0
147
0.0
147
0.0208333333333333
147
0.0
147
0.0
147
0.0
147
0.0
147
1.0
147
0.0
147
0.0
147
0.0
147
0.0
147
1.0
  0
MATERIAL
  5
1ADE
102
{ACAD_XDICTIONARY
360
1ADF
102
}
102
{ACAD_REACTORS
330
1ADD
102
}
330
1ADD
100
AcDbMaterial
  1
ByLayer
 72
     0
 43
0.0208333333333333
 43
0.0
 43
0.0
 43
0.0
 43
0.0
 43
0.0208333333333333
 43
0.0
 43
0.0
 43
0.0
 43
0.0
 43
1.0
 43
0.0
 43
0.0
 43
0.0
 43
0.0
 43
1.0
 77
     0
 47
0.0208333333333333
 47
0.0
 47
0.0
 47
0.0
 47
0.0
 47
0.0208333333333333
 47
0.0
 47
0.0
 47
0.0
 47
0.0
 47
1.0
 47
0.0
 47
0.0
 47
0.0
 47
0.0
 47
1.0
171
     0
 49
0.0208333333333333
 49
0.0
 49
0.0
 49
0.0
 49
0.0
 49
0.0208333333333333
 49
0.0
 49
0.0
 49
0.0
 49
0.0
 49
1.0
 49
0.0
 49
0.0
 49
0.0
 49
0.0
 49
1.0
175
     0
142
0.0208333333333333
142
0.0
142
0.0
142
0.0
142
0.0
142
0.0208333333333333
142
0.0
142
0.0
142
0.0
142
0.0
142
1.0
142
0.0
142
0.0
142
0.0
142
0.0
142
1.0
179
     0
144
0.0208333333333333
144
0.0
144
0.0
144
0.0
144
0.0
144
0.0208333333333333
144
0.0
144
0.0
144
0.0
144
0.0
144
1.0
144
0.0
144
0.0
144
0.0
144
0.0
144
1.0
147
0.0208333333333333
147
0.0
147
0.0
147
0.0
147
0.0
147
0.0208333333333333
147
0.0
147
0.0
147
0.0
147
0.0
147
1.0
147
0.0
147
0.0
147
0.0
147
0.0
147
1.0
  0
MATERIAL
  5
1AEE
102
{ACAD_XDICTIONARY
360
1AEF
102
}
102
{ACAD_REACTORS
330
1ADD
102
}
330
1ADD
100
AcDbMaterial
  1
Global
 72
     0
 43
0.0208333333333333
 43
0.0
 43
0.0
 43
0.0
 43
0.0
 43
0.0208333333333333
 43
0.0
 43
0.0
 43
0.0
 43
0.0
 43
1.0
 43
0.0
 43
0.0
 43
0.0
 43
0.0
 43
1.0
 77
     0
 47
0.0208333333333333
 47
0.0
 47
0.0
 47
0.0
 47
0.0
 47
0.0208333333333333
 47
0.0
 47
0.0
 47
0.0
 47
0.0
 47
1.0
 47
0.0
 47
0.0
 47
0.0
 47
0.0
 47
1.0
171
     0
 49
0.0208333333333333
 49
0.0
 49
0.0
 49
0.0
 49
0.0
 49
0.0208333333333333
 49
0.0
 49
0.0
 49
0.0
 49
0.0
 49
1.0
 49
0.0
 49
0.0
 49
0.0
 49
0.0
 49
1.0
175
     0
142
0.0208333333333333
142
0.0
142
0.0
142
0.0
142
0.0
142
0.0208333333333333
142
0.0
142
0.0
142
0.0
142
0.0
142
1.0
142
0.0
142
0.0
142
0.0
142
0.0
142
1.0
179
     0
144
0.0208333333333333
144
0.0
144
0.0
144
0.0
144
0.0
144
0.0208333333333333
144
0.0
144
0.0
144
0.0
144
0.0
144
1.0
144
0.0
144
0.0
144
0.0
144
0.0
144
1.0
147
0.0208333333333333
147
0.0
147
0.0
147
0.0
147
0.0
147
0.0208333333333333
147
0.0
147
0.0
147
0.0
147
0.0
147
1.0
147
0.0
147
0.0
147
0.0
147
0.0
147
1.0
  0
MLEADERSTYLE
  5
1B1D
102
{ACAD_REACTORS
330
1B1C
102
}
330
1B1C
100
AcDbMLeaderStyle
170
     2
171
     1
172
     0
 90
        2
 40
0.0
 41
0.0
173
     1
 91
-1056964608
340
12
 92
       -2
290
     1
 42
2.0
291
     1
 43
0.36
  3
Standard
 44
4.0
300

342
10
174
     1
178
     6
175
     1
176
     0
 93
-1056964608
 45
4.0
292
     0
297
     0
 46
4.0
 94
-1056964608
 47
1.0
 49
1.0
140
1.0
293
     1
141
0.0
294
     1
177
     0
142
1.0
295
     0
296
     0
143
0.125
1001
ACAD_MLEADERVER
1070
     2
  0
MLINESTYLE
  5
1B
102
{ACAD_REACTORS
330
E
102
}
330
E
100
AcDbMlineStyle
  2
STANDARD
 70
     0
  3

 62
     0
 51
90.0
 52
90.0
 71
     2
 49
0.5
 62
   256
  6
BYLAYER
 49
-0.5
 62
   256
  6
BYLAYER
  0
ACDBPLACEHOLDER
  5
1ADC
102
{ACAD_REACTORS
330
1ADB
102
}
330
1ADB
  0
SCALE
  5
1B0B
102
{ACAD_REACTORS
330
1B0A
102
}
330
1B0A
100
AcDbScale
 70
     0
300
1:1
140
1.0
141
1.0
290
     1
  0
SCALE
  5
1B0C
102
{ACAD_REACTORS
330
1B0A
102
}
330
1B0A
100
AcDbScale
 70
     0
300
1:2
140
1.0
141
2.0
290
     0
  0
SCALE
  5
1B0D
102
{ACAD_REACTORS
330
1B0A
102
}
330
1B0A
100
AcDbScale
 70
     0
300
1:4
140
1.0
141
4.0
290
     0
  0
SCALE
  5
1B0E
102
{ACAD_REACTORS
330
1B0A
102
}
330
1B0A
100
AcDbScale
 70
     0
300
1:5
140
1.0
141
5.0
290
     0
  0
SCALE
  5
1B0F
102
{ACAD_REACTORS
330
1B0A
102
}
330
1B0A
100
AcDbScale
 70
     0
300
1:8
140
1.0
141
8.0
290
     0
  0
SCALE
  5
1B10
102
{ACAD_REACTORS
330
1B0A
102
}
330
1B0A
100
AcDbScale
 70
     0
300
1:10
140
1.0
141
10.0
290
     0
  0
SCALE
  5
1B11
102
{ACAD_REACTORS
330
1B0A
102
}
330
1B0A
100
AcDbScale
 70
     0
300
1:16
140
1.0
141
16.0
290
     0
  0
SCALE
  5
1B12
102
{ACAD_REACTORS
330
1B0A
102
}
330
1B0A
100
AcDbScale
 70
     0
300
1:20
140
1.0
141
20.0
290
     0
  0
SCALE
  5
1B13
102
{ACAD_REACTORS
330
1B0A
102
}
330
1B0A
100
AcDbScale
 70
     0
300
1:30
140
1.0
141
30.0
290
     0
  0
SCALE
  5
1B14
102
{ACAD_REACTORS
330
1B0A
102
}
330
1B0A
100
AcDbScale
 70
     0
300
1:40
140
1.0
141
40.0
290
     0
  0
SCALE
  5
1B15
102
{ACAD_REACTORS
330
1B0A
102
}
330
1B0A
100
AcDbScale
 70
     0
300
1:50
140
1.0
141
50.0
290
     0
  0
SCALE
  5
1B16
102
{ACAD_REACTORS
330
1B0A
102
}
330
1B0A
100
AcDbScale
 70
     0
300
1:100
140
1.0
141
100.0
290
     0
  0
SCALE
  5
1B17
102
{ACAD_REACTORS
330
1B0A
102
}
330
1B0A
100
AcDbScale
 70
     0
300
2:1
140
2.0
141
1.0
290
     0
  0
SCALE
  5
1B18
102
{ACAD_REACTORS
330
1B0A
102
}
330
1B0A
100
AcDbScale
 70
     0
300
4:1
140
4.0
141
1.0
290
     0
  0
SCALE
  5
1B19
102
{ACAD_REACTORS
330
1B0A
102
}
330
1B0A
100
AcDbScale
 70
     0
300
8:1
140
8.0
141
1.0
290
     0
  0
SCALE
  5
1B1A
102
{ACAD_REACTORS
330
1B0A
102
}
330
1B0A
100
AcDbScale
 70
     0
300
10:1
140
10.0
141
1.0
290
     0
  0
SCALE
  5
1B1B
102
{ACAD_REACTORS
330
1B0A
102
}
330
1B0A
100
AcDbScale
 70
     0
300
100:1
140
100.0
141
1.0
290
     0
  0
TABLESTYLE
  5
1B09
102
{ACAD_XDICTIONARY
360
1BDF
102
}
102
{ACAD_REACTORS
330
1B08
102
}
330
1B08
100
AcDbTableStyle
  3
Standard
 70
     0
 71
     0
 40
1.5
 41
1.5
280
     0
281
     0
  7
STANDARD
140
4.5
170
     2
 62
     0
 63
     7
283
     0
274
    -2
284
     1
 64
     0
275
    -2
285
     1
 65
     0
276
    -2
286
     1
 66
     0
277
    -2
287
     1
 67
     0
278
    -2
288
     1
 68
     0
279
    -2
289
     1
 69
     0
  7
STANDARD
140
6.0
170
     5
 62
     0
 63
     7
283
     0
274
    -2
284
     1
 64
     0
275
    -2
285
     1
 65
     0
276
    -2
286
     1
 66
     0
277
    -2
287
     1
 67
     0
278
    -2
288
     1
 68
     0
279
    -2
289
     1
 69
     0
  7
STANDARD
140
4.5
170
     5
 62
     0
 63
     7
283
     0
274
    -2
284
     1
 64
     0
275
    -2
285
     1
 65
     0
276
    -2
286
     1
 66
     0
277
    -2
287
     1
 67
     0
278
    -2
288
     1
 68
     0
279
    -2
289
     1
 69
     0
  0
VISUALSTYLE
  5
1AFC
102
{ACAD_REACTORS
330
1AF6
102
}
330
1AF6
100
AcDbVisualStyle
  2
2dWireframe
 70
     4
 71
     0
 72
     2
 73
     0
 90
        0
 40
-0.6
 41
-30.0
 62
     5
 63
     7
 74
     1
 91
        4
 64
     7
 65
   257
 75
     1
175
     1
 42
1.0
 92
        0
 66
   257
 43
1.0
 76
     1
 77
     6
 78
     2
 67
     7
 79
     5
170
     0
171
     0
290
     0
174
     0
 93
        1
 44
0.0
173
     0
291
     0
 45
0.0
1001
ACAD
1000
AcDbSavedByObjectVersion
1070
     0
  0
VISUALSTYLE
  5
1AFE
102
{ACAD_REACTORS
330
1AF6
102
}
330
1AF6
100
AcDbVisualStyle
  2
3D Hidden
 70
     6
 71
     1
 72
     2
 73
     2
 90
        0
 40
-0.6
 41
-30.0
 62
     5
 63
     7
 74
     2
 91
        2
 64
     7
 65
   257
 75
     2
175
     1
 42
40.0
 92
        0
 66
   257
 43
1.0
 76
     1
 77
     6
 78
     2
 67
     7
 79
     3
170
     0
171
     0
290
     0
174
     0
 93
        1
 44
0.0
173
     0
291
     0
 45
0.0
1001
ACAD
1000
AcDbSavedByObjectVersion
1070
     0
  0
VISUALSTYLE
  5
1AFD
102
{ACAD_REACTORS
330
1AF6
102
}
330
1AF6
100
AcDbVisualStyle
  2
3dWireframe
 70
     5
 71
     0
 72
     2
 73
     0
 90
        0
 40
-0.6
 41
-30.0
 62
     5
 63
     7
 74
     1
 91
        4
 64
     7
 65
   257
 75
     1
175
     1
 42
1.0
 92
        0
 66
   257
 43
1.0
 76
     1
 77
     6
 78
     2
 67
     7
 79
     5
170
     0
171
     0
290
     0
174
     0
 93
        1
 44
0.0
173
     0
291
     0
 45
0.0
1001
ACAD
1000
AcDbSavedByObjectVersion
1070
     0
  0
VISUALSTYLE
  5
1AFB
102
{ACAD_REACTORS
330
1AF6
102
}
330
1AF6
100
AcDbVisualStyle
  2
Basic
 70
     7
 71
     1
 72
     0
 73
     1
 90
        0
 40
-0.6
 41
-30.0
 62
     5
 63
     7
 74
     0
 91
        4
 64
     7
 65
   257
 75
     1
175
     1
 42
1.0
 92
        8
 66
     7
 43
1.0
 76
     1
 77
     6
 78
     2
 67
     7
 79
     5
170
     0
171
     0
290
     0
174
     0
 93
        1
 44
0.0
173
     0
291
     1
 45
0.0
1001
ACAD
1000
AcDbSavedByObjectVersion
1070
     0
  0
VISUALSTYLE
  5
1B02
102
{ACAD_REACTORS
330
1AF6
102
}
330
1AF6
100
AcDbVisualStyle
  2
Brighten
 70
    12
 71
     2
 72
     2
 73
     0
 90
        0
 40
-0.6
 41
-30.0
 62
     5
 63
     7
 74
     1
 91
        4
 64
     7
 65
   257
 75
     1
175
     1
 42
1.0
 92
        8
 66
     7
 43
1.0
 76
     1
 77
     6
 78
     2
 67
     7
 79
     5
170
     0
171
     0
290
     0
174
     0
 93
        1
 44
50.0
173
     0
291
     1
 45
0.0
1001
ACAD
1000
AcDbSavedByObjectVersion
1070
     0
  0
VISUALSTYLE
  5
1B06
102
{ACAD_REACTORS
330
1AF6
102
}
330
1AF6
100
AcDbVisualStyle
  2
ColorChange
 70
    16
 71
     2
 72
     2
 73
     3
 90
        0
 40
-0.6
 41
-30.0
 62
     5
 63
     8
 74
     1
 91
        4
 64
     7
 65
   257
 75
     1
175
     1
 42
1.0
 92
        8
 66
     8
 43
1.0
 76
     1
 77
     6
 78
     2
 67
     7
 79
     5
170
     0
171
     0
290
     0
174
     0
 93
        1
 44
0.0
173
     0
291
     1
 45
0.0
1001
ACAD
1000
AcDbSavedByObjectVersion
1070
     0
  0
VISUALSTYLE
  5
1AFF
102
{ACAD_REACTORS
330
1AF6
102
}
330
1AF6
100
AcDbVisualStyle
  2
Conceptual
 70
     9
 71
     3
 72
     2
 73
     0
 90
        0
 40
-0.6
 41
-30.0
 62
     5
 63
     7
 74
     2
 91
        2
 64
     7
 65
   257
 75
     1
175
     1
 42
40.0
 92
        8
 66
     7
 43
1.0
 76
     1
 77
     6
 78
     2
 67
     7
 79
     3
170
     0
171
     0
290
     0
174
     0
 93
        1
 44
0.0
173
     0
291
     0
 45
0.0
1001
ACAD
1000
AcDbSavedByObjectVersion
1070
     0
  0
VISUALSTYLE
  5
1B01
102
{ACAD_REACTORS
330
1AF6
102
}
330
1AF6
100
AcDbVisualStyle
  2
Dim
 70
    11
 71
     2
 72
     2
 73
     0
 90
        0
 40
-0.6
 41
-30.0
 62
     5
 63
     7
 74
     1
 91
        4
 64
     7
 65
   257
 75
     1
175
     1
 42
1.0
 92
        8
 66
     7
 43
1.0
 76
     1
 77
     6
 78
     2
 67
     7
 79
     5
170
     0
171
     0
290
     0
174
     0
 93
        1
 44
-50.0
173
     0
291
     1
 45
0.0
1001
ACAD
1000
AcDbSavedByObjectVersion
1070
     0
  0
VISUALSTYLE
  5
1B05
102
{ACAD_REACTORS
330
1AF6
102
}
330
1AF6
100
AcDbVisualStyle
  2
Facepattern
 70
    15
 71
     2
 72
     2
 73
     0
 90
        0
 40
-0.6
 41
-30.0
 62
     5
 63
     7
 74
     1
 91
        4
 64
     7
 65
   257
 75
     1
175
     1
 42
1.0
 92
        8
 66
     7
 43
1.0
 76
     1
 77
     6
 78
     2
 67
     7
 79
     5
170
     0
171
     0
290
     0
174
     0
 93
        1
 44
0.0
173
     0
291
     1
 45
0.0
1001
ACAD
1000
AcDbSavedByObjectVersion
1070
     0
  0
VISUALSTYLE
  5
1AF7
102
{ACAD_REACTORS
330
1AF6
102
}
330
1AF6
100
AcDbVisualStyle
  2
Flat
 70
     0
 71
     2
 72
     1
 73
     1
 90
        2
 40
-0.6
 41
30.0
 62
     5
 63
     7
 74
     0
 91
        4
 64
     7
 65
   257
 75
     1
175
     1
 42
1.0
 92
        8
 66
     7
 43
1.0
 76
     1
 77
     6
 78
     2
 67
     7
 79
     5
170
     0
171
     0
290
     0
174
     0
 93
       13
 44
0.0
173
     0
291
     1
 45
0.0
1001
ACAD
1000
AcDbSavedByObjectVersion
1070
     0
  0
VISUALSTYLE
  5
1AF8
102
{ACAD_REACTORS
330
1AF6
102
}
330
1AF6
100
AcDbVisualStyle
  2
FlatWithEdges
 70
     1
 71
     2
 72
     1
 73
     1
 90
        2
 40
-0.6
 41
30.0
 62
     5
 63
     7
 74
     1
 91
        4
 64
     7
 65
   257
 75
     1
175
     1
 42
1.0
 92
        0
 66
   257
 43
1.0
 76
     1
 77
     6
 78
     2
 67
     7
 79
     5
170
     0
171
     0
290
     0
174
     0
 93
       13
 44
0.0
173
     0
291
     1
 45
0.0
1001
ACAD
1000
AcDbSavedByObjectVersion
1070
     0
  0
VISUALSTYLE
  5
1AF9
102
{ACAD_REACTORS
330
1AF6
102
}
330
1AF6
100
AcDbVisualStyle
  2
Gouraud
 70
     2
 71
     2
 72
     2
 73
     1
 90
        2
 40
-0.6
 41
30.0
 62
     5
 63
     7
 74
     0
 91
        4
 64
     7
 65
   257
 75
     1
175
     1
 42
1.0
 92
        0
 66
     7
 43
1.0
 76
     1
 77
     6
 78
     2
 67
     7
 79
     5
170
     0
171
     0
290
     0
174
     0
 93
       13
 44
0.0
173
     0
291
     1
 45
0.0
1001
ACAD
1000
AcDbSavedByObjectVersion
1070
     0
  0
VISUALSTYLE
  5
1AFA
102
{ACAD_REACTORS
330
1AF6
102
}
330
1AF6
100
AcDbVisualStyle
  2
GouraudWithEdges
 70
     3
 71
     2
 72
     2
 73
     1
 90
        2
 40
-0.6
 41
30.0
 62
     5
 63
     7
 74
     1
 91
        4
 64
     7
 65
   257
 75
     1
175
     1
 42
1.0
 92
        0
 66
   257
 43
1.0
 76
     1
 77
     6
 78
     2
 67
     7
 79
     5
170
     0
171
     0
290
     0
174
     0
 93
       13
 44
0.0
173
     0
291
     1
 45
0.0
1001
ACAD
1000
AcDbSavedByObjectVersion
1070
     0
  0
VISUALSTYLE
  5
1B04
102
{ACAD_REACTORS
330
1AF6
102
}
330
1AF6
100
AcDbVisualStyle
  2
Linepattern
 70
    14
 71
     2
 72
     2
 73
     0
 90
        0
 40
-0.6
 41
-30.0
 62
     5
 63
     7
 74
     1
 91
        4
 64
     7
 65
   257
 75
     7
175
     7
 42
1.0
 92
        8
 66
     7
 43
1.0
 76
     1
 77
     6
 78
     2
 67
     7
 79
     5
170
     0
171
     0
290
     0
174
     0
 93
        1
 44
0.0
173
     0
291
     1
 45
0.0
1001
ACAD
1000
AcDbSavedByObjectVersion
1070
     0
  0
VISUALSTYLE
  5
1B00
102
{ACAD_REACTORS
330
1AF6
102
}
330
1AF6
100
AcDbVisualStyle
  2
Realistic
 70
     8
 71
     2
 72
     2
 73
     0
 90
        0
 40
-0.6
 41
-30.0
 62
     5
 63
     7
 74
     1
 91
        0
 64
     7
 65
   257
 75
     1
175
     1
 42
1.0
 92
        8
 66
     8
 43
1.0
 76
     1
 77
     6
 78
     2
 67
     7
 79
     5
170
     0
171
     0
290
     0
174
     0
 93
       13
 44
0.0
173
     0
291
     0
 45
0.0
1001
ACAD
1000
AcDbSavedByObjectVersion
1070
     0
  0
VISUALSTYLE
  5
1B03
102
{ACAD_REACTORS
330
1AF6
102
}
330
1AF6
100
AcDbVisualStyle
  2
Thicken
 70
    13
 71
     2
 72
     2
 73
     0
 90
        0
 40
-0.6
 41
-30.0
 62
     5
 63
     7
 74
     1
 91
        4
 64
     7
 65
   257
 75
     1
175
     1
 42
1.0
 92
       12
 66
     7
 43
1.0
 76
     1
 77
     6
 78
     2
 67
     7
 79
     5
170
     0
171
     0
290
     0
174
     0
 93
        1
 44
0.0
173
     0
291
     1
 45
0.0
1001
ACAD
1000
AcDbSavedByObjectVersion
1070
     0
  0
DICTIONARYVAR
  5
1BDB
102
{ACAD_REACTORS
330
1BD8
102
}
330
1BD8
100
DictionaryVariables
280
     0
  1
1:1
  0
DICTIONARYVAR
  5
1BDA
102
{ACAD_REACTORS
330
1BD8
102
}
330
1BD8
100
DictionaryVariables
280
     0
  1
STANDARD
  0
DICTIONARYVAR
  5
1BD9
102
{ACAD_REACTORS
330
1BD8
102
}
330
1BD8
100
DictionaryVariables
280
     0
  1
STANDARD
  0
DICTIONARYVAR
  5
1BDE
102
{ACAD_REACTORS
330
1BD8
102
}
330
1BD8
100
DictionaryVariables
280
     0
  1
1
  0
DICTIONARYVAR
  5
1BDD
102
{ACAD_REACTORS
330
1BD8
102
}
330
1BD8
100
DictionaryVariables
280
     0
  1
0
  0
DICTIONARYVAR
  5
1BDC
102
{ACAD_REACTORS
330
1BD8
102
}
330
1BD8
100
DictionaryVariables
280
     0
  1
127
  0
DICTIONARY
  5
1B8C
102
{ACAD_REACTORS
330
1B81
102
}
330
1B81
100
AcDbDictionary
281
     1
  0
DICTIONARY
  5
1BE9
330
1B22
100
AcDbDictionary
280
     1
281
     1
  3
ACAD_XREC_ROUNDTRIP
360
1BEA
  0
DICTIONARY
  5
1BE7
330
1B21
100
AcDbDictionary
280
     1
281
     1
  3
ACAD_XREC_ROUNDTRIP
360
1BE8
  0
DICTIONARY
  5
1AE7
330
1AE6
100
AcDbDictionary
280
     1
281
     1
  3
ACAD_XREC_ROUNDTRIP
360
1BE4
  3
BUMPTILE
360
1AE9
  3
DIFFUSETILE
360
1AE8
  3
OPACITYTILE
360
1AEC
  3
REFLECTIONTILE
360
1AEB
  3
REFRACTIONTILE
360
1AED
  3
SPECULARTILE
360
1AEA
  0
DICTIONARY
  5
1ADF
330
1ADE
100
AcDbDictionary
280
     1
281
     1
  3
ACAD_XREC_ROUNDTRIP
360
1BE3
  3
BUMPTILE
360
1AE1
  3
DIFFUSETILE
360
1AE0
  3
OPACITYTILE
360
1AE4
  3
REFLECTIONTILE
360
1AE3
  3
REFRACTIONTILE
360
1AE5
  3
SPECULARTILE
360
1AE2
  0
DICTIONARY
  5
1AEF
330
1AEE
100
AcDbDictionary
280
     1
281
     1
  3
ACAD_XREC_ROUNDTRIP
360
1BE5
  3
BUMPTILE
360
1AF1
  3
DIFFUSETILE
360
1AF0
  3
OPACITYTILE
360
1AF4
  3
REFLECTIONTILE
360
1AF3
  3
REFRACTIONTILE
360
1AF5
  3
SPECULARTILE
360
1AF2
  0
DICTIONARY
  5
1BDF
330
1B09
100
AcDbDictionary
280
     1
281
     1
  3
ACAD_ROUNDTRIP_2008_TABLESTYLE_CELLSTYLEMAP
360
1BE0
  3
ACAD_XREC_ROUNDTRIP
360
1BE6
  0
XRECORD
  5
1BEA
102
{ACAD_REACTORS
330
1BE9
102
}
330
1BE9
100
AcDbXrecord
280
     1
102
SHADEPLOT
 70
     0
102
SHADEPLOTRESLEVEL
 70
     2
102
SHADEPLOTCUSTOMDPI
 70
   300
  0
XRECORD
  5
1BE8
102
{ACAD_REACTORS
330
1BE7
102
}
330
1BE7
100
AcDbXrecord
280
     1
102
SHADEPLOT
 70
     0
102
SHADEPLOTRESLEVEL
 70
     2
102
SHADEPLOTCUSTOMDPI
 70
   300
  0
XRECORD
  5
1BE4
102
{ACAD_REACTORS
330
1AE7
102
}
330
1AE7
100
AcDbXrecord
280
     1
102
MATERIAL
148
0.0
149
0.0
149
0.0
 93
        0
 94
      127
282
     0
 72
     0
 77
     0
171
     0
175
     0
179
     0
273
     0
  0
XRECORD
  5
1AE9
102
{ACAD_REACTORS
330
1AE7
102
}
330
1AE7
100
AcDbXrecord
280
     1
270
     1
271
     1
  0
XRECORD
  5
1AE8
102
{ACAD_REACTORS
330
1AE7
102
}
330
1AE7
100
AcDbXrecord
280
     1
270
     1
271
     1
  0
XRECORD
  5
1AEC
102
{ACAD_REACTORS
330
1AE7
102
}
330
1AE7
100
AcDbXrecord
280
     1
270
     1
271
     1
  0
XRECORD
  5
1AEB
102
{ACAD_REACTORS
330
1AE7
102
}
330
1AE7
100
AcDbXrecord
280
     1
270
     1
271
     1
  0
XRECORD
  5
1AED
102
{ACAD_REACTORS
330
1AE7
102
}
330
1AE7
100
AcDbXrecord
280
     1
270
     1
271
     1
  0
XRECORD
  5
1AEA
102
{ACAD_REACTORS
330
1AE7
102
}
330
1AE7
100
AcDbXrecord
280
     1
270
     1
271
     1
  0
XRECORD
  5
1BE3
102
{ACAD_REACTORS
330
1ADF
102
}
330
1ADF
100
AcDbXrecord
280
     1
102
MATERIAL
148
0.0
149
0.0
149
0.0
 93
        0
 94
      127
282
     0
 72
     0
 77
     0
171
     0
175
     0
179
     0
273
     0
  0
XRECORD
  5
1AE1
102
{ACAD_REACTORS
330
1ADF
102
}
330
1ADF
100
AcDbXrecord
280
     1
270
     1
271
     1
  0
XRECORD
  5
1AE0
102
{ACAD_REACTORS
330
1ADF
102
}
330
1ADF
100
AcDbXrecord
280
     1
270
     1
271
     1
  0
XRECORD
  5
1AE4
102
{ACAD_REACTORS
330
1ADF
102
}
330
1ADF
100
AcDbXrecord
280
     1
270
     1
271
     1
  0
XRECORD
  5
1AE3
102
{ACAD_REACTORS
330
1ADF
102
}
330
1ADF
100
AcDbXrecord
280
     1
270
     1
271
     1
  0
XRECORD
  5
1AE5
102
{ACAD_REACTORS
330
1ADF
102
}
330
1ADF
100
AcDbXrecord
280
     1
270
     1
271
     1
  0
XRECORD
  5
1AE2
102
{ACAD_REACTORS
330
1ADF
102
}
330
1ADF
100
AcDbXrecord
280
     1
270
     1
271
     1
  0
XRECORD
  5
1BE5
102
{ACAD_REACTORS
330
1AEF
102
}
330
1AEF
100
AcDbXrecord
280
     1
102
MATERIAL
148
0.0
149
0.0
149
0.0
 93
        0
 94
      127
282
     0
 72
     0
 77
     0
171
     0
175
     0
179
     0
273
     0
  0
XRECORD
  5
1AF1
102
{ACAD_REACTORS
330
1AEF
102
}
330
1AEF
100
AcDbXrecord
280
     1
270
     1
271
     1
  0
XRECORD
  5
1AF0
102
{ACAD_REACTORS
330
1AEF
102
}
330
1AEF
100
AcDbXrecord
280
     1
270
     1
271
     1
  0
XRECORD
  5
1AF4
102
{ACAD_REACTORS
330
1AEF
102
}
330
1AEF
100
AcDbXrecord
280
     1
270
     1
271
     1
  0
XRECORD
  5
1AF3
102
{ACAD_REACTORS
330
1AEF
102
}
330
1AEF
100
AcDbXrecord
280
     1
270
     1
271
     1
  0
XRECORD
  5
1AF5
102
{ACAD_REACTORS
330
1AEF
102
}
330
1AEF
100
AcDbXrecord
280
     1
270
     1
271
     1
  0
XRECORD
  5
1AF2
102
{ACAD_REACTORS
330
1AEF
102
}
330
1AEF
100
AcDbXrecord
280
     1
270
     1
271
     1
  0
CELLSTYLEMAP
  5
1BE0
102
{ACAD_REACTORS
330
1BDF
102
}
330
1BDF
100
AcDbCellStyleMap
 90
        3
300
CELLSTYLE
  1
TABLEFORMAT_BEGIN
 90
        5
170
     1
 91
        0
 92
    32768
 62
   257
 93
        1
300
CONTENTFORMAT
  1
CONTENTFORMAT_BEGIN
 90
        0
 91
        0
 92
      512
 93
        0
300

 40
0.0
140
1.0
 94
        5
 62
     0
340
10
144
6.0
309
CONTENTFORMAT_END
171
     1
301
MARGIN
  1
CELLMARGIN_BEGIN
 40
1.5
 40
1.5
 40
1.5
 40
1.5
 40
4.5
 40
4.5
309
CELLMARGIN_END
 94
        6
 95
        1
302
GRIDFORMAT
  1
GRIDFORMAT_BEGIN
 90
        0
 91
        1
 62
     0
 92
       -2
340
0
 93
        0
 40
1.125
309
GRIDFORMAT_END
 95
        2
302
GRIDFORMAT
  1
GRIDFORMAT_BEGIN
 90
        0
 91
        1
 62
     0
 92
       -2
340
0
 93
        0
 40
1.125
309
GRIDFORMAT_END
 95
        4
302
GRIDFORMAT
  1
GRIDFORMAT_BEGIN
 90
        0
 91
        1
 62
     0
 92
       -2
340
0
 93
        0
 40
1.125
309
GRIDFORMAT_END
 95
        8
302
GRIDFORMAT
  1
GRIDFORMAT_BEGIN
 90
        0
 91
        1
 62
     0
 92
       -2
340
0
 93
        0
 40
1.125
309
GRIDFORMAT_END
 95
       16
302
GRIDFORMAT
  1
GRIDFORMAT_BEGIN
 90
        0
 91
        1
 62
     0
 92
       -2
340
0
 93
        0
 40
1.125
309
GRIDFORMAT_END
 95
       32
302
GRIDFORMAT
  1
GRIDFORMAT_BEGIN
 90
        0
 91
        1
 62
     0
 92
       -2
340
0
 93
        0
 40
1.125
309
GRIDFORMAT_END
309
TABLEFORMAT_END
  1
CELLSTYLE_BEGIN
 90
        1
 91
        1
300
_TITLE
309
CELLSTYLE_END
300
CELLSTYLE
  1
TABLEFORMAT_BEGIN
 90
        5
170
     1
 91
        0
 92
        0
 62
   257
 93
        1
300
CONTENTFORMAT
  1
CONTENTFORMAT_BEGIN
 90
        0
 91
        0
 92
      512
 93
        0
300

 40
0.0
140
1.0
 94
        5
 62
     0
340
10
144
4.5
309
CONTENTFORMAT_END
171
     1
301
MARGIN
  1
CELLMARGIN_BEGIN
 40
1.5
 40
1.5
 40
1.5
 40
1.5
 40
4.5
 40
4.5
309
CELLMARGIN_END
 94
        6
 95
        1
302
GRIDFORMAT
  1
GRIDFORMAT_BEGIN
 90
        0
 91
        1
 62
     0
 92
       -2
340
0
 93
        0
 40
1.125
309
GRIDFORMAT_END
 95
        2
302
GRIDFORMAT
  1
GRIDFORMAT_BEGIN
 90
        0
 91
        1
 62
     0
 92
       -2
340
0
 93
        0
 40
1.125
309
GRIDFORMAT_END
 95
        4
302
GRIDFORMAT
  1
GRIDFORMAT_BEGIN
 90
        0
 91
        1
 62
     0
 92
       -2
340
0
 93
        0
 40
1.125
309
GRIDFORMAT_END
 95
        8
302
GRIDFORMAT
  1
GRIDFORMAT_BEGIN
 90
        0
 91
        1
 62
     0
 92
       -2
340
0
 93
        0
 40
1.125
309
GRIDFORMAT_END
 95
       16
302
GRIDFORMAT
  1
GRIDFORMAT_BEGIN
 90
        0
 91
        1
 62
     0
 92
       -2
340
0
 93
        0
 40
1.125
309
GRIDFORMAT_END
 95
       32
302
GRIDFORMAT
  1
GRIDFORMAT_BEGIN
 90
        0
 91
        1
 62
     0
 92
       -2
340
0
 93
        0
 40
1.125
309
GRIDFORMAT_END
309
TABLEFORMAT_END
  1
CELLSTYLE_BEGIN
 90
        2
 91
        1
300
_HEADER
309
CELLSTYLE_END
300
CELLSTYLE
  1
TABLEFORMAT_BEGIN
 90
        5
170
     1
 91
        0
 92
        0
 62
   257
 93
        1
300
CONTENTFORMAT
  1
CONTENTFORMAT_BEGIN
 90
        0
 91
        0
 92
      512
 93
        0
300

 40
0.0
140
1.0
 94
        2
 62
     0
340
10
144
4.5
309
CONTENTFORMAT_END
171
     1
301
MARGIN
  1
CELLMARGIN_BEGIN
 40
1.5
 40
1.5
 40
1.5
 40
1.5
 40
4.5
 40
4.5
309
CELLMARGIN_END
 94
        6
 95
        1
302
GRIDFORMAT
  1
GRIDFORMAT_BEGIN
 90
        0
 91
        1
 62
     0
 92
       -2
340
0
 93
        0
 40
1.125
309
GRIDFORMAT_END
 95
        2
302
GRIDFORMAT
  1
GRIDFORMAT_BEGIN
 90
        0
 91
        1
 62
     0
 92
       -2
340
0
 93
        0
 40
1.125
309
GRIDFORMAT_END
 95
        4
302
GRIDFORMAT
  1
GRIDFORMAT_BEGIN
 90
        0
 91
        1
 62
     0
 92
       -2
340
0
 93
        0
 40
1.125
309
GRIDFORMAT_END
 95
        8
302
GRIDFORMAT
  1
GRIDFORMAT_BEGIN
 90
        0
 91
        1
 62
     0
 92
       -2
340
0
 93
        0
 40
1.125
309
GRIDFORMAT_END
 95
       16
302
GRIDFORMAT
  1
GRIDFORMAT_BEGIN
 90
        0
 91
        1
 62
     0
 92
       -2
340
0
 93
        0
 40
1.125
309
GRIDFORMAT_END
 95
       32
302
GRIDFORMAT
  1
GRIDFORMAT_BEGIN
 90
        0
 91
        1
 62
     0
 92
       -2
340
0
 93
        0
 40
1.125
309
GRIDFORMAT_END
309
TABLEFORMAT_END
  1
CELLSTYLE_BEGIN
 90
        3
 91
        2
300
_DATA
309
CELLSTYLE_END
  0
XRECORD
  5
1BE6
102
{ACAD_REACTORS
330
1BDF
102
}
330
1BDF
100
AcDbXrecord
280
     1
102
ACAD_ROUNDTRIP_PRE2007_TABLESTYLE
 90
      512
 91
        0
  1

 92
      512
 93
        0
  2

 94
      512
 95
        0
  3

  0
ENDSEC
  0
EOF
